<?xml version="1.0" standalone="no"?>
<!DOCTYPE svg PUBLIC "-//W3C//DTD SVG 1.1//EN" "http://www.w3.org/Graphics/SVG/1.1/DTD/svg11.dtd" >
<svg xmlns="http://www.w3.org/2000/svg">
<defs>
  <font id="its-iconfont" horiz-adv-x="1541.1392405063293">
    <font-face font-family="its-iconfont"
      units-per-em="1000" ascent="1000"
      descent="0" />
    <missing-glyph horiz-adv-x="0" />
    <glyph glyph-name="blog_ferienwelten"
      unicode="&#xE001;"
      horiz-adv-x="1000" d="M281.4583333333333 798.125L206.875 872.9166666666667L147.9166666666667 813.9583333333334L222.7083333333333 739.1666666666667L281.4583333333333 798.125zM166.6666666666667 562.5H41.6666666666667V479.1666666666667H166.6666666666667V562.5zM541.6666666666666 977.0833333333334H458.3333333333333V854.1666666666667H541.6666666666666V977.0833333333334zM852.0833333333333 813.9583333333334L793.125 872.9166666666667L718.3333333333334 798.125L777.2916666666666 739.1666666666667L852.0833333333334 813.9583333333334zM718.5416666666665 243.5416666666667L793.3333333333333 168.7499999999999L852.2916666666665 227.7083333333333L777.4999999999998 302.5L718.5416666666665 243.5416666666667zM833.3333333333333 562.5V479.1666666666667H958.3333333333331V562.5H833.3333333333333zM500 770.8333333333334C361.875 770.8333333333334 250 658.9583333333333 250 520.8333333333334S361.875 270.8333333333334 500 270.8333333333334S750 382.7083333333334 750 520.8333333333334S638.1249999999999 770.8333333333334 500 770.8333333333334zM458.3333333333333 64.5833333333334H541.6666666666666V187.5H458.3333333333333V64.5833333333334zM147.9166666666667 227.7083333333334L206.875 168.7500000000001L281.6666666666667 243.5416666666667L222.7083333333333 302.5L147.9166666666667 227.7083333333333z" />
    <glyph glyph-name="blog_flag"
      unicode="&#xE002;"
      horiz-adv-x="1000" d="M600 750L583.3333333333333 833.3333333333334H208.3333333333333V125H291.6666666666667V416.6666666666668H525L541.6666666666666 333.3333333333334H833.3333333333333V750zM600 750L583.3333333333333 833.3333333333334H208.3333333333333V125H291.6666666666667V416.6666666666668H525L541.6666666666666 333.3333333333334H833.3333333333333V750z" />
    <glyph glyph-name="blog_lightbulb"
      unicode="&#xE003;"
      horiz-adv-x="1000" d="M375 125C375 102.0833333333334 393.75 83.3333333333334 416.6666666666667 83.3333333333334H583.3333333333333C606.25 83.3333333333334 625 102.0833333333334 625 125V166.6666666666668H375V125zM500 916.6666666666666C338.9583333333333 916.6666666666666 208.3333333333333 786.0416666666667 208.3333333333333 625C208.3333333333333 525.8333333333335 257.9166666666667 438.5416666666668 333.3333333333333 385.8333333333334V291.6666666666668C333.3333333333333 268.75 352.0833333333333 250 375 250H625C647.9166666666666 250 666.6666666666666 268.75 666.6666666666666 291.6666666666668V385.8333333333334C742.0833333333333 438.5416666666668 791.6666666666666 525.8333333333333 791.6666666666666 625C791.6666666666666 786.0416666666667 661.0416666666666 916.6666666666666 500 916.6666666666666zM618.9583333333334 454.1666666666667L583.3333333333333 429.375V333.3333333333334H416.6666666666667V429.1666666666668L381.0416666666667 453.9583333333334C325 493.1250000000001 291.6666666666667 556.875 291.6666666666667 624.7916666666666C291.6666666666667 739.5833333333333 385.2083333333334 833.125 500 833.125S708.3333333333333 739.5833333333333 708.3333333333333 624.7916666666666C708.3333333333333 557.0833333333333 674.9999999999999 493.3333333333334 618.9583333333334 454.1666666666666zM375 125C375 102.0833333333334 393.75 83.3333333333334 416.6666666666667 83.3333333333334H583.3333333333333C606.25 83.3333333333334 625 102.0833333333334 625 125V166.6666666666668H375V125zM500 916.6666666666666C338.9583333333333 916.6666666666666 208.3333333333333 786.0416666666667 208.3333333333333 625C208.3333333333333 525.8333333333335 257.9166666666667 438.5416666666668 333.3333333333333 385.8333333333334V291.6666666666668C333.3333333333333 268.75 352.0833333333333 250 375 250H625C647.9166666666666 250 666.6666666666666 268.75 666.6666666666666 291.6666666666668V385.8333333333334C742.0833333333333 438.5416666666668 791.6666666666666 525.8333333333333 791.6666666666666 625C791.6666666666666 786.0416666666667 661.0416666666666 916.6666666666666 500 916.6666666666666zM618.9583333333334 454.1666666666667L583.3333333333333 429.375V333.3333333333334H416.6666666666667V429.1666666666668L381.0416666666667 453.9583333333334C325 493.1250000000001 291.6666666666667 556.875 291.6666666666667 624.7916666666666C291.6666666666667 739.5833333333333 385.2083333333334 833.125 500 833.125S708.3333333333333 739.5833333333333 708.3333333333333 624.7916666666666C708.3333333333333 557.0833333333333 674.9999999999999 493.3333333333334 618.9583333333334 454.1666666666666z" />
    <glyph glyph-name="blog_reiseziele"
      unicode="&#xE004;"
      horiz-adv-x="1000" d="M600 750L583.3333333333333 833.3333333333334H208.3333333333333V125H291.6666666666667V416.6666666666668H525L541.6666666666666 333.3333333333334H833.3333333333333V750z" />
    <glyph glyph-name="blog_sunny"
      unicode="&#xE005;"
      horiz-adv-x="1000" d="M281.4583333333333 798.125L206.875 872.9166666666667L147.9166666666667 813.9583333333334L222.7083333333333 739.1666666666667L281.4583333333333 798.125zM166.6666666666667 562.5H41.6666666666667V479.1666666666667H166.6666666666667V562.5zM541.6666666666666 977.0833333333334H458.3333333333333V854.1666666666667H541.6666666666666V977.0833333333334zM852.0833333333333 813.9583333333334L793.125 872.9166666666667L718.3333333333334 798.125L777.2916666666666 739.1666666666667L852.0833333333334 813.9583333333334zM718.5416666666665 243.5416666666667L793.3333333333333 168.7499999999999L852.2916666666665 227.7083333333333L777.4999999999998 302.5L718.5416666666665 243.5416666666667zM833.3333333333333 562.5V479.1666666666667H958.3333333333331V562.5H833.3333333333333zM500 770.8333333333334C361.875 770.8333333333334 250 658.9583333333333 250 520.8333333333334S361.875 270.8333333333334 500 270.8333333333334S750 382.7083333333334 750 520.8333333333334S638.1249999999999 770.8333333333334 500 770.8333333333334zM458.3333333333333 64.5833333333334H541.6666666666666V187.5H458.3333333333333V64.5833333333334zM147.9166666666667 227.7083333333334L206.875 168.7500000000001L281.6666666666667 243.5416666666667L222.7083333333333 302.5L147.9166666666667 227.7083333333333zM281.4583333333333 798.125L206.875 872.9166666666667L147.9166666666667 813.9583333333334L222.7083333333333 739.1666666666667L281.4583333333333 798.125zM166.6666666666667 562.5H41.6666666666667V479.1666666666667H166.6666666666667V562.5zM541.6666666666666 977.0833333333334H458.3333333333333V854.1666666666667H541.6666666666666V977.0833333333334zM852.0833333333333 813.9583333333334L793.125 872.9166666666667L718.3333333333334 798.125L777.2916666666666 739.1666666666667L852.0833333333334 813.9583333333334zM718.5416666666665 243.5416666666667L793.3333333333333 168.7499999999999L852.2916666666665 227.7083333333333L777.4999999999998 302.5L718.5416666666665 243.5416666666667zM833.3333333333333 562.5V479.1666666666667H958.3333333333331V562.5H833.3333333333333zM500 770.8333333333334C361.875 770.8333333333334 250 658.9583333333333 250 520.8333333333334S361.875 270.8333333333334 500 270.8333333333334S750 382.7083333333334 750 520.8333333333334S638.1249999999999 770.8333333333334 500 770.8333333333334zM458.3333333333333 64.5833333333334H541.6666666666666V187.5H458.3333333333333V64.5833333333334zM147.9166666666667 227.7083333333334L206.875 168.7500000000001L281.6666666666667 243.5416666666667L222.7083333333333 302.5L147.9166666666667 227.7083333333333z" />
    <glyph glyph-name="blog_tipps"
      unicode="&#xE006;"
      horiz-adv-x="1000" d="M375 125C375 102.0833333333334 393.75 83.3333333333334 416.6666666666667 83.3333333333334H583.3333333333333C606.25 83.3333333333334 625 102.0833333333334 625 125V166.6666666666668H375V125zM500 916.6666666666666C338.9583333333333 916.6666666666666 208.3333333333333 786.0416666666667 208.3333333333333 625C208.3333333333333 525.8333333333335 257.9166666666667 438.5416666666668 333.3333333333333 385.8333333333334V291.6666666666668C333.3333333333333 268.75 352.0833333333333 250 375 250H625C647.9166666666666 250 666.6666666666666 268.75 666.6666666666666 291.6666666666668V385.8333333333334C742.0833333333333 438.5416666666668 791.6666666666666 525.8333333333333 791.6666666666666 625C791.6666666666666 786.0416666666667 661.0416666666666 916.6666666666666 500 916.6666666666666zM618.9583333333334 454.1666666666667L583.3333333333333 429.375V333.3333333333334H416.6666666666667V429.1666666666668L381.0416666666667 453.9583333333334C325 493.1250000000001 291.6666666666667 556.875 291.6666666666667 624.7916666666666C291.6666666666667 739.5833333333333 385.2083333333334 833.125 500 833.125S708.3333333333333 739.5833333333333 708.3333333333333 624.7916666666666C708.3333333333333 557.0833333333333 674.9999999999999 493.3333333333334 618.9583333333334 454.1666666666666z" />
    <glyph glyph-name="burger"
      unicode="&#xE007;"
      horiz-adv-x="1473.6842105263156" d="M0 921.4210526315788V869.8421052631578H1473.6842105263156V972.9999999999998H0zM0 500.157894736842V447.3684210526315H1473.6842105263156V552.9999999999999H0zM0 78.9473684210526V27.3684210526316H1473.6842105263156V130.5263157894737H0z" />
    <glyph glyph-name="close-large"
      unicode="&#xE008;"
      horiz-adv-x="1000" d="M54.56 945.44L26.68 917.52L241.24 702.92L455.84 488.3199999999999L241.24 273.7599999999999L26.68 59.16L54.56 31.24L82.48 3.3199999999999L297.0800000000001 217.9200000000001L511.6800000000001 432.48L726.2400000000001 217.9200000000001L940.84 3.3199999999999L968.76 31.24L996.68 59.16L782.0799999999999 273.76L567.52 488.3200000000001L782.0799999999999 702.9200000000001L996.68 917.52L968.76 945.44L940.84 973.32L726.24 758.7600000000001L511.6799999999999 544.1600000000001L297.08 758.7600000000001L82.4799999999999 973.3200000000002z" />
    <glyph glyph-name="dropdown"
      unicode="&#xE009;"
      horiz-adv-x="1000" d="M280 612.5L250.8333333333333 583.3333333333334L375.8333333333333 458.3333333333334L500.8333333333333 333.3333333333334L625.8333333333333 458.3333333333334L750.8333333333333 583.3333333333334L721.2499999999999 612.9166666666667L691.6666666666665 642.5000000000001L595.8333333333331 546.6666666666667L499.9999999999998 450.8333333333334L404.5833333333332 546.25L309.1249999999999 641.6666666666666z" />
    <glyph glyph-name="faq"
      unicode="&#xE00A;"
      horiz-adv-x="997.4037213327564" d="M393.3362180874081 602.7693639117265C393.3362180874081 578.1047165729121 373.4314149718736 558.1999134573778 349.1994807442666 558.1999134573778S305.0627434011251 578.1047165729121 305.0627434011251 602.7693639117265C305.0627434011251 656.4257897014279 326.6983989614886 704.8896581566421 361.7481609692774 739.5067070532236S444.8290783210732 796.192124621376 498.4855041107746 796.192124621376S600.1730852444829 774.5564690610124 635.2228472522718 739.5067070532236S691.9082648204242 655.9930765902207 691.9082648204242 602.7693639117265S670.2726092600607 500.6490696668109 635.2228472522718 466.0320207702292C610.1254868022502 440.9346603202077 578.5374296841195 422.7607096495023 543.0549545651234 414.5391605365642V395.4997836434444C543.0549545651234 370.83513630463 523.1501514495889 350.9303331890956 498.9182172219819 350.9303331890956S454.7814798788404 370.8351363046301 454.7814798788404 395.4997836434444V453.9160536564258C454.7814798788404 478.1479878840329 474.6862829943748 498.0527909995672 498.9182172219819 498.0527909995672C527.909995672869 498.0527909995672 553.872782345305 509.7360450021635 572.912159238425 528.7754218952833S603.6347901341412 574.2102985720467 603.6347901341412 603.2020770229337S591.9515361315449 658.5893552574641 572.912159238425 677.628732150584S527.909995672869 708.3513630463002 498.9182172219819 708.3513630463002S443.9636520986587 696.6681090437039 424.9242752055387 677.628732150584S394.2016443098226 632.1938554738208 394.2016443098226 603.2020770229337zM493.7256598874946 204.2405884898311C469.0610125486802 204.2405884898311 449.5889225443531 223.7126784941583 449.5889225443531 248.3773258329726S469.4937256598876 292.9467762873215 493.7256598874946 292.9467762873215H503.6780614452618C528.3427087840762 292.9467762873215 547.8147987884033 273.041973171787 547.8147987884033 248.3773258329726S527.9099956728688 204.2405884898311 503.6780614452618 204.2405884898311H493.7256598874946zM498.4855041107745 78.3210731285157C614.88533102553 78.3210731285157 720.0346170488966 125.4868022501081 795.7594115101688 202.0770229337948C871.9169190826483 278.2345305062743 919.0826482042406 383.816529640848 919.0826482042406 500.2163565556035S871.9169190826483 722.1981826049328 795.7594115101688 798.7884032886195S614.4526179143228 922.5443530938986 498.4855041107745 922.5443530938986S276.9363911726525 875.3786239723062 200.7788836001731 798.7884032886195C124.6213760276936 722.1981826049328 77.4556469061012 617.0488965815663 77.4556469061012 500.2163565556035S124.6213760276936 278.2345305062743 200.7788836001731 202.0770229337948S382.0856771960191 78.3210731285157 498.4855041107745 78.3210731285157zM851.1466897446993 146.6897446992644C761.1423626135874 56.252704456945 636.0882734746864 0 498.4855041107746 0S236.2613587191693 55.8199913457377 145.8243184768499 146.6897446992644S0 362.1808740804845 0 500.2163565556035S55.8199913457378 763.3059281696235 145.8243184768499 853.7429684119428C236.2613587191692 944.1800086542622 360.8827347468628 999.9999999999998 498.9182172219818 999.9999999999998S761.1423626135871 944.1800086542622 851.5794028559064 853.7429684119428S997.8364344439636 638.2518390307225 997.8364344439636 500.2163565556035S942.0164430982257 237.1267849415836 851.5794028559064 146.6897446992644z" />
    <glyph glyph-name="ico-back-to-top"
      unicode="&#xE00B;"
      horiz-adv-x="1000" d="M166.6666666666667 458.3333333333334L225.4166666666667 399.5833333333334L458.3333333333333 632.0833333333334V125H541.6666666666666V632.0833333333334L774.5833333333333 399.5833333333334L833.3333333333333 458.3333333333334L500 791.6666666666667zM187.5 916.6666666666666H812.5V833.3333333333334H187.5z" />
    <glyph glyph-name="nachhaltig"
      unicode="&#xE00C;"
      horiz-adv-x="1000" d="M0 500A500 500 0 1 1 1000 500A500 500 0 1 1 0 500H25A450 450 0 1 0 975 500A450 450 0 1 0 25 500zM582.75 548.75C450.2500000000001 438.5 331.7500000000001 334.2499999999999 298.6250000000001 156.7499999999999C427.3750000000001 245.6249999999999 597.8750000000001 266.7499999999999 688.125 374.2499999999999C781.2500000000001 485.1249999999999 764.7500000000001 638.4999999999999 769.875 793.8749999999999C661.5 742.8749999999999 554.0000000000001 714.7499999999999 444.125 689.7499999999999C233.75 641.75 144.875 415.375 251.5 205C369.625 416.375 455.375 508.375 582.75 548.625H582.75z" />
    <glyph glyph-name="newsletter"
      unicode="&#xE00D;"
      horiz-adv-x="1541.1392405063293" d="M1416.8173598553344 237.3417721518987S1416.8173598553344 237.3417721518987 1416.8173598553344 237.3417721518987L1436.25678119349 342.2242314647379C1437.1609403254972 347.1971066907776 1434.4484629294755 352.1699819168174 1429.9276672694393 354.4303797468355C1390.1446654611211 372.9656419529837 1324.5931283905966 375.2260397830019 1276.6726943942133 349.4575045207956C1222.8752260397828 320.9764918625678 1189.873417721519 264.9186256781193 1189.873417721519 203.4358047016275S1231.012658227848 110.3074141048825 1271.24773960217 110.3074141048825C1305.6057866184449 110.3074141048825 1334.99095840868 123.8698010849911 1357.5949367088608 151.4466546112117C1364.8282097649187 127.0343580470163 1383.363471971067 115.2802893309223 1400.994575045208 112.1157323688969C1405.5153707052443 111.2115732368898 1410.0361663652802 110.7594936708861 1414.1048824593129 110.7594936708861C1477.3960216998191 110.7594936708861 1541.1392405063293 167.7215189873418 1541.1392405063293 277.1247739602169C1541.1392405063293 331.8264014466546 1523.0560578661846 380.6509945750451 1489.6021699819169 415.0090415913201V830.9222423146474C1489.6021699819169 900.0904159132008 1489.6021699819169 959.3128390596746 1430.3797468354433 985.5334538878842L1425.4068716094034 987.7938517179024S1424.0506329113925 987.7938517179024 1423.598553345389 988.245931283906C1395.1175406871612 998.6437613019892 1356.6907775768536 1000.4520795660036 1287.5226039783004 1000.4520795660036H202.5316455696203C127.9385171790235 1000 89.9638336347197 998.1916817359856 60.126582278481 985.985533453888C0 960.6690777576854 0 900.5424954792044 0 830.9222423146474V256.7811934900544C0 226.491862567812 0.9041591320072 208.4086799276674 2.2603978300181 193.4900542495482C5.877034358047 158.227848101266 16.2748643761302 115.7323688969261 69.620253164557 98.5533453887886C98.1012658227848 89.5117540687163 135.1717902350814 87.7034358047018 202.5316455696203 87.7034358047018H1129.2947558770343C1166.365280289331 33.0018083182642 1230.108499095841 0.4520795660038 1300.1808318264016 0.4520795660038C1348.1012658227849 0.4520795660038 1385.1717902350813 9.0415913200726 1419.5298372513562 27.1247739602172C1420.8860759493673 27.1247739602172 1432.1880650994576 31.6455696202535 1437.613019891501 42.4954792043402C1439.873417721519 47.0162748643764 1441.6817359855334 54.7016274864378 1437.613019891501 64.1952983725138C1434.9005424954792 70.5244122965645 1430.8318264014467 75.0452079566005 1424.502712477396 77.3056057866187C1413.6528028933094 81.3743218806512 1402.3508137432189 76.4014466546114 1400.0904159132008 75.0452079566005C1375.6781193490056 61.482820976492 1342.6763110307415 53.7974683544306 1307.4141048824592 53.7974683544306C1250.4520795660035 53.7974683544306 1202.5316455696202 79.1139240506331 1176.3110307414106 122.965641952984C1160.0361663652805 149.6383363471973 1151.4466546112117 181.7359855334542 1151.4466546112117 218.3544303797471C1151.4466546112117 287.974683544304 1176.763110307414 346.7450271247742 1223.3273056057867 384.2676311030744C1254.9728752260398 410.0361663652806 1293.8517179023509 423.598553345389 1335.4430379746836 423.598553345389C1388.7884267631105 423.598553345389 1429.9276672694396 403.7070524412299 1455.2441229656422 366.6365280289333C1472.4231464737798 341.7721518987344 1481.4647377938518 309.222423146474 1481.4647377938518 272.603978300181C1481.4647377938518 232.3688969258591 1470.1627486437615 198.0108499095843 1450.7233273056058 178.1193490054252C1441.6817359855336 169.0777576853528 1432.6401446654613 164.1048824593131 1423.1464737793854 164.5569620253166C1418.1735985533455 164.5569620253166 1416.3652802893312 166.8173598553348 1415.0090415913203 168.1735985533455C1411.3924050632913 172.6943942133818 1406.4195298372515 186.2567811934901 1414.104882459313 224.2314647377939L1416.8173598553346 237.3417721518987zM1367.5406871609403 310.126582278481L1355.7866184448462 246.8354430379748C1349.4575045207955 210.2169981916818 1318.264014466546 167.7215189873418 1287.9746835443036 167.7215189873418C1261.754068716094 167.7215189873418 1256.3291139240505 188.5171790235082 1256.3291139240505 205.6962025316456C1256.3291139240505 249.5479204339963 1280.7414104882457 289.7830018083182 1317.359855334539 305.1537070524412C1326.8535262206149 309.6745027124773 1337.251356238698 311.9349005424955 1348.5533453887886 311.9349005424955C1355.3345388788427 311.9349005424955 1362.115732368897 311.4828209764919 1368.4448462929477 310.126582278481zM1416.3652802893307 830.4701627486437V462.9294755877033C1393.3092224231464 471.518987341772 1367.9927667269437 475.5877034358045 1340.8679927667267 475.5877034358045C1292.4954792043397 475.5877034358045 1249.0958408679926 463.3815551537069 1210.6690777576853 439.8734177215189L994.5750452079564 614.8282097649185L1411.392405063291 902.8028933092224C1415.0090415913198 888.3363471971065 1415.9132007233272 863.019891500904 1415.9132007233272 830.4701627486436zM1097.6491862567811 160.9403254972874H202.5316455696203C154.1591320072333 160.9403254972874 112.5678119349006 161.3924050632911 91.7721518987342 168.1735985533453C84.99095840868 169.9819168173598 81.8264014466546 171.3381555153707 79.1139240506329 180.8318264014466L562.3869801084991 572.7848101265822L742.3146473779384 449.8191681735986C746.3833634719709 447.1066907775768 751.3562386980107 447.1066907775768 754.9728752260397 449.8191681735986L931.28390596745 571.4285714285713L1153.7070524412295 391.0488245931283C1113.4719710669076 343.5804701627485 1091.772151898734 281.1934900542494 1091.772151898734 214.2857142857142C1091.772151898734 195.7504520795659 1093.5804701627483 177.6672694394213 1097.649186256781 160.9403254972874zM499.0958408679926 616.1844484629294L73.6889692585895 272.1518987341772V830.9222423146474C73.6889692585895 865.2802893309222 74.5931283905967 890.5967450271248 78.2097649186257 904.1591320072332L498.6437613019892 616.6365280289331zM177.6672694394214 925.858951175407C185.8047016274865 925.858951175407 194.3942133815552 925.858951175407 202.9837251356239 925.858951175407H1287.5226039783C1297.0162748643759 925.858951175407 1306.0578661844484 925.858951175407 1314.6473779385171 925.858951175407L749.0958408679927 534.8101265822784L177.6672694394214 925.858951175407z" />
    <glyph glyph-name="supercard"
      unicode="&#xE00E;"
      horiz-adv-x="1000" d="M0 500A500 500 0 1 1 1000 500A500 500 0 1 1 0 500H25A450 450 0 1 0 975 500A450 450 0 1 0 25 500zM735.1600000000001 698.0799999999999L264.8350000000001 698.0799999999999C229.0350000000001 698.0799999999999 200.01 669.0550000000001 200.01 633.23L200.01 362.93C200.01 327.105 229.0350000000001 298.0800000000001 264.8350000000001 298.0800000000001L735.1600000000001 298.0800000000001C770.96 298.0800000000001 800.01 327.105 800.01 362.93L800.01 633.23C800.01 669.0550000000001 770.96 698.0799999999999 735.1600000000001 698.0799999999999M735.1600000000001 660.5799999999999C750.235 660.5799999999999 762.51 648.3050000000001 762.51 633.23L762.51 362.93C762.51 347.855 750.235 335.5800000000001 735.1600000000001 335.5800000000001L264.8350000000001 335.5800000000001C249.76 335.5800000000001 237.51 347.855 237.51 362.93L237.51 633.23C237.51 648.3050000000001 249.76 660.5799999999999 264.8350000000001 660.5799999999999L735.1600000000001 660.5799999999999M698.8050000000001 573.0825C698.8050000000001 545.4575 676.4300000000001 523.0825 648.8050000000001 523.0825C621.1800000000001 523.0825 598.8050000000001 545.4575 598.8050000000001 573.0825C598.8050000000001 600.7075 621.1800000000001 623.0825 648.8050000000001 623.0825C676.4300000000001 623.0825 698.8050000000001 600.7075 698.8050000000001 573.0825M548.8050000000001 573.0825C548.8050000000001 545.4575 526.4300000000001 523.0825 498.805 523.0825C471.18 523.0825 448.805 545.4575 448.805 573.0825C448.805 600.7075 471.18 623.0825 498.805 623.0825C526.4300000000001 623.0825 548.8050000000001 600.7075 548.8050000000001 573.0825M398.805 573.0825C398.805 545.4575 376.43 523.0825 348.805 523.0825C321.18 523.0825 298.805 545.4575 298.805 573.0825C298.805 600.7075 321.18 623.0825 348.805 623.0825C376.43 623.0825 398.805 600.7075 398.805 573.0825M648.8025 473.08C621.2025 473.08 598.8025 450.7049999999999 598.8025 423.0800000000001C598.8025 395.48 621.2025 373.0800000000001 648.8025 373.0800000000001C676.4275 373.0800000000001 698.8025 395.48 698.8025 423.0800000000001C698.8025 450.7049999999999 676.4275 473.08 648.8025 473.08M648.8025 448.0800000000001C662.5775 448.0800000000001 673.8025 436.855 673.8025 423.0800000000001C673.8025 409.305 662.5775 398.0800000000001 648.8025 398.0800000000001C635.0275 398.0800000000001 623.8025 409.305 623.8025 423.0800000000001C623.8025 436.855 635.0275 448.0800000000001 648.8025 448.0800000000001M498.8025 473.08C471.2025 473.08 448.8025 450.7049999999999 448.8025 423.0800000000001C448.8025 395.48 471.2025 373.0800000000001 498.8025 373.0800000000001C526.4275 373.0800000000001 548.8025 395.48 548.8025 423.0800000000001C548.8025 450.7049999999999 526.4275 473.08 498.8025 473.08M498.8025 448.0800000000001C512.5775 448.0800000000001 523.8025 436.855 523.8025 423.0800000000001C523.8025 409.305 512.5775 398.0800000000001 498.8025 398.0800000000001C485.0275 398.0800000000001 473.8025 409.305 473.8025 423.0800000000001C473.8025 436.855 485.0275 448.0800000000001 498.8025 448.0800000000001M398.805 423.0825C398.805 395.4575 376.43 373.0825 348.805 373.0825C321.18 373.0825 298.805 395.4575 298.805 423.0825C298.805 450.7075 321.18 473.0825 348.805 473.0825C376.43 473.0825 398.805 450.7075 398.805 423.0825" />
    <glyph glyph-name="trash"
      unicode="&#xE00F;"
      horiz-adv-x="1000" d="M403.2 898.35C387.45 895.6 370.9000000000001 884.25 361.05 869.4C350.85 854 350 847.75 350 787.15V733.3499999999999L255.4000000000001 733.3H160.85L154.35 729.55A23.05 23.05 0 0 1 142.15 706.45C143.5 690.9 153.6 683.3499999999999 173.05 683.3499999999999H184.8L185.75 676.25C186.25 672.3499999999999 195.65 560.6999999999999 206.65 428.15C224.95 206.9999999999999 226.95 186 230.75 173.9499999999999C236.1 157.05 245.4 143.0999999999999 260.7000000000001 128.8000000000001C274.75 115.65 288.6500000000001 108.0500000000001 307.35 103.35C320.1500000000001 100.0999999999999 325.95 100 500 100C674.05 100 679.85 100.0999999999999 692.65 103.35C711.35 108.0500000000001 725.25 115.65 739.3 128.8000000000001C754.65 143.15 763.9 157.0500000000001 769.3 174.15C773.1999999999999 186.4499999999999 775.0999999999999 206 793.4 426.6500000000001C804.3 558.2 813.65 669.7 814.1999999999999 674.4000000000001L815.1999999999999 683L828.8499999999999 683.6C844.3 684.25 849.0999999999999 686.7 854.9 696.9000000000001A23.05 23.05 0 0 1 845.9 729.2L838.85 733.35H650V787.15C650 847.75 649.15 854 638.95 869.4A69.95 69.95 0 0 1 609.05 894.5500000000001L599.15 899.1500000000001L504.9999999999999 899.45C453.1999999999999 899.6 407.3999999999999 899.1 403.2 898.35M594.55 844.55L599.15 839.95L599.65 786.6500000000001L600.1499999999999 733.35H399.85L400.35 786.5C400.8 836.95 401 839.85 404.1500000000001 843.35A22.95 22.95 0 0 0 410.85 848.45C412.65 849.2 453.7 849.7 502.05 849.5L589.9499999999999 849.15L594.55 844.55M743.85 438.2C724.35 203.9 723.25 192.6500000000001 719.35 184.0999999999999C714.1 172.5999999999999 702.3000000000001 160.9 690.35 155.3L680.85 150.85H319.15L309.65 155.3A64.15 64.15 0 0 0 280.65 184.0999999999999C276.75 192.6499999999999 275.65 203.9 256.15 438.2L235.7 683.3499999999999H764.2999999999998L743.8499999999999 438.2M404.3499999999998 562.9C390.8999999999998 555.1999999999999 391.6499999999998 564 391.6499999999998 416.95C391.6499999999998 272.55 391.1999999999998 279.1499999999999 402.2999999999998 271.2C406.1499999999998 268.4500000000001 409.8499999999998 267.5 416.6499999999998 267.5C427.4999999999999 267.5 434.7499999999999 271.8 438.9999999999998 280.7C441.4499999999998 285.8999999999999 441.6999999999998 298.95 441.2999999999998 418.65C440.8499999999998 547.8499999999999 440.7499999999998 550.9499999999999 437.4999999999997 555.3A30.7 30.7 0 0 1 416.4499999999998 566.6500000000001A30.3 30.3 0 0 1 404.3499999999998 562.9000000000001M570.5999999999998 562.5000000000001C557.6499999999997 554.7500000000001 558.3499999999998 562.95 558.3499999999998 416.6500000000001C558.3499999999998 272.5500000000001 557.8499999999998 279.1500000000001 568.9499999999998 271.2000000000002C572.8499999999998 268.4500000000002 576.4999999999998 267.5000000000001 583.3499999999998 267.5000000000001C590.1499999999997 267.5000000000001 593.8499999999999 268.4500000000002 597.6999999999998 271.2000000000002C608.7999999999998 279.1500000000002 608.3499999999998 272.5500000000001 608.3499999999998 416.9500000000002C608.3499999999998 564 609.0999999999998 555.2000000000002 595.6499999999999 562.9000000000001A22.8 22.8 0 0 1 570.5999999999999 562.5000000000002" />
    <glyph glyph-name="marker-default"
      unicode="&#xE010;"
      horiz-adv-x="1000" d="M125 500A375 375 0 0 1 875 500A375 375 0 0 1 125 500M0 500A500 500 0 0 1 1000 500A500 500 0 0 1 0 500M140.625 500A359.375 359.375 0 0 1 859.375 500A359.375 359.375 0 0 1 140.625 500M457.71875 343.75V476.09375H545.96875V343.75H656.25V520.21875H722.4375L501.8125 718.75L281.25 520.21875H347.4375V343.75z" />
    <glyph glyph-name="marker-hover"
      unicode="&#xE011;"
      horiz-adv-x="1000" d="M20.8333333333333 500A479.1666666666666 479.1666666666666 0 0 1 979.1666666666666 500A479.1666666666666 479.1666666666666 0 0 1 20.8333333333333 500M443.62745 291.6666666666668L443.62745 468.1372541666667L561.2745083333333 468.1372541666667L561.2745083333333 291.6666666666668L708.3333333333333 291.6666666666668L708.3333333333333 526.9607833333334L796.5686291666666 526.9607833333334L502.4509791666667 791.6666666666667L208.3333333333333 526.9607833333334L296.5686275 526.9607833333334L296.5686275 291.6666666666668z" />
    <glyph glyph-name="marker-neutral"
      unicode="&#xE012;"
      horiz-adv-x="1000" d="M20.8333333333333 500A479.1666666666666 479.1666666666666 0 0 1 979.1666666666666 500A479.1666666666666 479.1666666666666 0 0 1 20.8333333333333 500M443.62745 291.6666666666668L443.62745 468.1372541666667L561.2745083333333 468.1372541666667L561.2745083333333 291.6666666666668L708.3333333333333 291.6666666666668L708.3333333333333 526.9607833333334L796.5686291666666 526.9607833333334L502.4509791666667 791.6666666666667L208.3333333333333 526.9607833333334L296.5686275 526.9607833333334L296.5686275 291.6666666666668z" />
    <glyph glyph-name="add-circle"
      unicode="&#xE013;"
      horiz-adv-x="1000" d="M500 916.6666666666666C269.7916666666667 916.6666666666666 83.3333333333333 730.2083333333334 83.3333333333333 500S269.7916666666667 83.3333333333334 500 83.3333333333334S916.6666666666666 269.7916666666668 916.6666666666666 500S730.2083333333333 916.6666666666666 500 916.6666666666666zM708.3333333333333 458.3333333333334H541.6666666666666V291.6666666666668H458.3333333333333V458.3333333333334H291.6666666666667V541.6666666666667H458.3333333333333V708.3333333333334H541.6666666666666V541.6666666666667H708.3333333333333V458.3333333333334z" />
    <glyph glyph-name="add"
      unicode="&#xE014;"
      horiz-adv-x="1000" d="M791.6666666666666 458.3333333333334H541.6666666666666V208.3333333333334H458.3333333333333V458.3333333333334H208.3333333333333V541.6666666666667H458.3333333333333V791.6666666666667H541.6666666666666V541.6666666666667H791.6666666666666V458.3333333333334z" />
    <glyph glyph-name="airplane"
      unicode="&#xE015;"
      horiz-adv-x="1000" d="M502.0833333333333 939.5833333333334C468.5083333333333 939.5833333333334 439.1083333333334 909.8333333333334 439.1083333333334 875.8333333333334V642.0833333333334L103.3083333333333 429.5833333333334V344.5833333333334L439.1083333333334 450.8333333333334V217.0833333333334L355.1583333333334 153.3333333333334V89.5833333333334L502.0833333333333 132.0833333333335L649.0083333333333 89.5833333333334V153.3333333333334L565.0583333333333 217.0833333333334V450.8333333333334L900.8583333333332 344.5833333333334V429.5833333333333L565.0583333333333 642.0833333333333V875.8333333333333C565.0583333333333 909.8333333333331 535.6583333333332 939.5833333333331 502.0833333333333 939.5833333333331z" />
    <glyph glyph-name="arrow-back"
      unicode="&#xE016;"
      horiz-adv-x="1000" d="M833.3333333333333 541.6666666666667H326.25L558.9583333333333 774.375L500 833.3333333333334L166.6666666666667 500L500 166.6666666666668L558.9583333333333 225.625L326.25 458.3333333333334H833.3333333333333V541.6666666666667z" />
    <glyph glyph-name="arrow-forward"
      unicode="&#xE017;"
      horiz-adv-x="1000" d="M500 833.3333333333334L441.0416666666667 774.375L673.75 541.6666666666667H166.6666666666667V458.3333333333334H673.75L441.0416666666667 225.625L500 166.6666666666668L833.3333333333333 500z" />
    <glyph glyph-name="arrow-upward"
      unicode="&#xE018;"
      horiz-adv-x="1000" d="M166.6666666666667 500L225.625 441.0416666666668L458.3333333333333 673.75V166.6666666666668H541.6666666666666V673.75L774.375 441.0416666666668L833.3333333333333 500L500 833.3333333333334L166.6666666666667 500z" />
    <glyph glyph-name="av-timer"
      unicode="&#xE019;"
      horiz-adv-x="1000" d="M458.3333333333333 291.6666666666668C458.3333333333333 268.75 477.0833333333333 250 500 250S541.6666666666666 268.75 541.6666666666666 291.6666666666668S522.9166666666666 333.3333333333334 500 333.3333333333334S458.3333333333333 314.5833333333334 458.3333333333333 291.6666666666668zM458.3333333333333 875V708.3333333333334H541.6666666666666V788.3333333333334C682.9166666666666 768.125 791.6666666666666 646.875 791.6666666666666 500C791.6666666666666 338.9583333333334 661.0416666666666 208.3333333333334 500 208.3333333333334S208.3333333333333 338.9583333333334 208.3333333333333 500C208.3333333333333 570 232.9166666666667 633.9583333333334 273.9583333333333 684.375L500 458.3333333333334L558.9583333333333 517.2916666666667L275.625 800.625L275.2083333333333 799.7916666666666C184.1666666666667 731.4583333333333 125 622.7083333333334 125 500C125 292.9166666666668 292.5 125 499.7916666666666 125S875 292.9166666666668 875 500S707.0833333333333 875 499.7916666666666 875H458.3333333333333zM750 500C750 522.9166666666667 731.25 541.6666666666667 708.3333333333333 541.6666666666667S666.6666666666666 522.9166666666667 666.6666666666666 500S685.4166666666666 458.3333333333334 708.3333333333333 458.3333333333334S750 477.0833333333334 750 500zM250 500C250 477.0833333333334 268.75 458.3333333333334 291.6666666666667 458.3333333333334S333.3333333333333 477.0833333333334 333.3333333333333 500S314.5833333333333 541.6666666666667 291.6666666666667 541.6666666666667S250 522.9166666666667 250 500z" />
    <glyph glyph-name="calendar"
      unicode="&#xE01A;"
      horiz-adv-x="875" d="M289.0625 437.5H210.9375C198.046875 437.5 187.5 448.046875 187.5 460.9375V539.0625C187.5 551.953125 198.046875 562.5 210.9375 562.5H289.0625C301.953125 562.5 312.5 551.953125 312.5 539.0625V460.9375C312.5 448.046875 301.953125 437.5 289.0625 437.5zM500 460.9375V539.0625C500 551.953125 489.453125 562.5 476.5625 562.5H398.4375C385.546875 562.5 375 551.953125 375 539.0625V460.9375C375 448.046875 385.546875 437.5 398.4375 437.5H476.5625C489.453125 437.5 500 448.046875 500 460.9375zM687.5 460.9375V539.0625C687.5 551.953125 676.953125 562.5 664.0625 562.5H585.9375C573.046875 562.5 562.5 551.953125 562.5 539.0625V460.9375C562.5 448.046875 573.046875 437.5 585.9375 437.5H664.0625C676.953125 437.5 687.5 448.046875 687.5 460.9375zM500 273.4375V351.5625C500 364.453125 489.453125 375 476.5625 375H398.4375C385.546875 375 375 364.453125 375 351.5625V273.4375C375 260.546875 385.546875 250 398.4375 250H476.5625C489.453125 250 500 260.546875 500 273.4375zM312.5 273.4375V351.5625C312.5 364.453125 301.953125 375 289.0625 375H210.9375C198.046875 375 187.5 364.453125 187.5 351.5625V273.4375C187.5 260.546875 198.046875 250 210.9375 250H289.0625C301.953125 250 312.5 260.546875 312.5 273.4375zM687.5 273.4375V351.5625C687.5 364.453125 676.953125 375 664.0625 375H585.9375C573.046875 375 562.5 364.453125 562.5 351.5625V273.4375C562.5 260.546875 573.046875 250 585.9375 250H664.0625C676.953125 250 687.5 260.546875 687.5 273.4375zM875 781.25V93.75C875 41.9921875 833.0078125 0 781.25 0H93.75C41.9921875 0 0 41.9921875 0 93.75V781.25C0 833.0078125 41.9921875 875 93.75 875H187.5V976.5625C187.5 989.453125 198.046875 1000 210.9375 1000H289.0625C301.953125 1000 312.5 989.453125 312.5 976.5625V875H562.5V976.5625C562.5 989.453125 573.046875 1000 585.9375 1000H664.0625C676.953125 1000 687.5 989.453125 687.5 976.5625V875H781.25C833.0078125 875 875 833.0078125 875 781.25zM781.25 105.46875V687.5H93.75V105.46875C93.75 99.0234375 99.0234375 93.75 105.46875 93.75H769.53125C775.9765625 93.75 781.25 99.0234375 781.25 105.46875z" />
    <glyph glyph-name="card-travel"
      unicode="&#xE01B;"
      horiz-adv-x="1000" d="M833.3333333333333 750H708.3333333333333V833.3333333333334C708.3333333333333 879.375 671.0416666666666 916.6666666666666 625 916.6666666666666H375C328.9583333333333 916.6666666666666 291.6666666666667 879.375 291.6666666666667 833.3333333333334V750H166.6666666666667C120.625 750 83.3333333333333 712.7083333333334 83.3333333333333 666.6666666666667V208.3333333333334C83.3333333333333 162.2916666666668 120.625 125 166.6666666666667 125H833.3333333333333C879.375 125 916.6666666666666 162.2916666666668 916.6666666666666 208.3333333333334V666.6666666666667C916.6666666666666 712.7083333333334 879.375 750 833.3333333333333 750zM375 833.3333333333334H625V750H375V833.3333333333334zM833.3333333333333 208.3333333333334H166.6666666666667V291.6666666666668H833.3333333333333V208.3333333333334zM833.3333333333333 416.6666666666668H166.6666666666667V666.6666666666667H291.6666666666667V583.3333333333334H375V666.6666666666667H625V583.3333333333334H708.3333333333333V666.6666666666667H833.3333333333333V416.6666666666668z" />
    <glyph glyph-name="check-box-outline-blank"
      unicode="&#xE01C;"
      horiz-adv-x="1000" d="M791.6666666666666 791.6666666666667V208.3333333333334H208.3333333333333V791.6666666666667H791.6666666666666M791.6666666666666 875H208.3333333333333C162.2916666666667 875 125 837.7083333333334 125 791.6666666666667V208.3333333333334C125 162.2916666666668 162.2916666666667 125 208.3333333333333 125H791.6666666666666C837.7083333333333 125 875 162.2916666666668 875 208.3333333333334V791.6666666666667C875 837.7083333333334 837.7083333333333 875 791.6666666666666 875z" />
    <glyph glyph-name="check-box"
      unicode="&#xE01D;"
      horiz-adv-x="1000" d="M791.6666666666666 875H208.3333333333333C162.2916666666667 875 125 837.7083333333334 125 791.6666666666667V208.3333333333334C125 162.2916666666668 162.2916666666667 125 208.3333333333333 125H791.6666666666666C837.7083333333333 125 875 162.2916666666668 875 208.3333333333334V791.6666666666667C875 837.7083333333334 837.7083333333333 875 791.6666666666666 875zM416.6666666666667 291.6666666666668L208.3333333333333 500L267.2916666666667 558.9583333333333L416.6666666666667 409.5833333333334L732.7083333333334 725.625L791.6666666666666 666.6666666666667L416.6666666666667 291.6666666666668z" />
    <glyph glyph-name="check-circle"
      unicode="&#xE01E;"
      horiz-adv-x="1000" d="M500 916.6666666666666C269.7916666666667 916.6666666666666 83.3333333333333 730.2083333333334 83.3333333333333 500C83.3333333333333 270.0000000000001 269.7916666666667 83.3333333333334 500 83.3333333333334C729.9999999999999 83.3333333333334 916.6666666666666 270.0000000000001 916.6666666666666 500C916.6666666666666 730.2083333333334 729.9999999999999 916.6666666666666 500 916.6666666666666zM416.6666666666667 291.6666666666668L208.3333333333333 500L267.2916666666667 558.9583333333333L416.6666666666667 409.5833333333334L732.7083333333334 725.625L791.6666666666666 666.6666666666667L416.6666666666667 291.6666666666668z" />
    <glyph glyph-name="check"
      unicode="&#xE01F;"
      horiz-adv-x="1000" d="M375 326.25L201.25 500L142.2916666666667 441.0416666666668L375 208.3333333333334L875 708.3333333333334L816.0416666666666 767.2916666666667z" />
    <glyph glyph-name="chevron-left"
      unicode="&#xE020;"
      horiz-adv-x="1000" d="M642.2916666666666 691.0416666666667L583.3333333333333 750L333.3333333333333 500L583.3333333333333 250L642.2916666666666 308.9583333333334L451.25 500z" />
    <glyph glyph-name="chevron-right"
      unicode="&#xE021;"
      horiz-adv-x="1000" d="M416.6666666666667 750L357.7083333333334 691.0416666666667L548.75 500L357.7083333333334 308.9583333333334L416.6666666666667 250L666.6666666666666 500z" />
    <glyph glyph-name="clear"
      unicode="&#xE022;"
      horiz-adv-x="1000" d="M791.6666666666666 732.7083333333334L732.7083333333334 791.6666666666667L500 558.9583333333333L267.2916666666667 791.6666666666667L208.3333333333333 732.7083333333334L441.0416666666667 500L208.3333333333333 267.2916666666667L267.2916666666667 208.3333333333334L500 441.0416666666668L732.7083333333334 208.3333333333334L791.6666666666666 267.2916666666667L558.9583333333333 500z" />
    <glyph glyph-name="close"
      unicode="&#xE023;"
      horiz-adv-x="1000" d="M791.6666666666666 732.7083333333334L732.7083333333334 791.6666666666667L500 558.9583333333333L267.2916666666667 791.6666666666667L208.3333333333333 732.7083333333334L441.0416666666667 500L208.3333333333333 267.2916666666667L267.2916666666667 208.3333333333334L500 441.0416666666668L732.7083333333334 208.3333333333334L791.6666666666666 267.2916666666667L558.9583333333333 500z" />
    <glyph glyph-name="code"
      unicode="&#xE024;"
      horiz-adv-x="1000" d="M391.6666666666667 308.3333333333333L202.0833333333333 500L393.75 691.6666666666667L333.3333333333333 750L83.3333333333333 500L333.3333333333333 250L391.6666666666667 308.3333333333333zM608.3333333333334 308.3333333333333L800.0000000000001 499.9999999999999L608.3333333333335 691.6666666666665L666.6666666666666 750L916.6666666666666 500L666.6666666666666 250L608.3333333333333 308.3333333333333z" />
    <glyph glyph-name="contact-chat"
      unicode="&#xE025;"
      horiz-adv-x="1000" d="M500 937.5C223.828125 937.5 0 755.6640625 0 531.25C0 434.375 41.796875 345.703125 111.328125 275.9765625C86.9140625 177.5390625 5.2734375 89.84375 4.296875 88.8671875C0 84.375 -1.171875 77.734375 1.3671875 71.875S9.375 62.5 15.625 62.5C145.1171875 62.5 242.1875 124.609375 290.234375 162.890625C354.1015625 138.8671874999999 425 125 500 125C776.171875 125 1000 306.8359375 1000 531.25S776.171875 937.5 500 937.5z" />
    <glyph glyph-name="contact-mail"
      unicode="&#xE026;"
      horiz-adv-x="1000" d="M906.25 875H93.75C41.97265625 875 0 833.02734375 0 781.25V218.75C0 166.97265625 41.97265625 125 93.75 125H906.25C958.02734375 125 1000 166.97265625 1000 218.75V781.25C1000 833.02734375 958.02734375 875 906.25 875zM906.25 781.25V701.552734375C862.45703125 665.890625 792.640625 610.4375 643.384765625 493.5644531249999C610.4921875 467.6914062499999 545.3359375 405.533203125 500 406.2578124999999C454.671875 405.5253906249999 389.494140625 467.7011718749999 356.615234375 493.5644531249999C207.3828125 610.419921875 137.548828125 665.884765625 93.75 701.552734375V781.25H906.25zM93.75 218.75V581.25390625C138.50390625 545.607421875 201.970703125 495.5859375 298.70703125 419.8359375C341.396484375 386.2324218750001 416.15625 312.0507812500001 500 312.5019531250001C583.431640625 312.0507812500001 657.244140625 385.1562500000001 701.275390625 419.8203125000001C798.009765625 495.5683593750001 861.494140625 545.6035156250001 906.25 581.2519531250001V218.75H93.75z" />
    <glyph glyph-name="contact-phone"
      unicode="&#xE027;"
      horiz-adv-x="1000" d="M971.46484375 293.359375L752.71484375 387.109375A46.875 46.875 0 0 1 698.02734375 373.6328125L601.1523437499999 255.2734375A723.9453125000001 723.9453125000001 0 0 0 255.078125 601.34765625L373.4375 698.22265625A46.7578125 46.7578125 0 0 1 386.9140625 752.91015625L293.1640625 971.66015625A47.1875 47.1875 0 0 1 239.453125 998.80859375L36.328125 951.93359375A46.875 46.875 0 0 1 0 906.25C0 405.2734375 406.0546875 0 906.25 0A46.875 46.875 0 0 1 951.953125 36.328125L998.828125 239.453125A47.44140625 47.44140625 0 0 1 971.46484375 293.3593750000001z" />
    <glyph glyph-name="contact-video"
      unicode="&#xE028;"
      horiz-adv-x="1125" d="M656.640625 875H93.359375C41.796875 875 0 833.203125 0 781.640625V218.359375C0 166.796875 41.796875 125 93.359375 125H656.640625C708.2031249999999 125 750 166.796875 750 218.359375V781.640625C750 833.203125 708.203125 875 656.640625 875zM1026.5625 801.3671875L812.5 653.7109375V346.2890624999999L1026.5625 198.8281249999999C1067.9687500000002 170.3124999999999 1125 199.4140624999999 1125 249.2187499999999V750.9765625C1125 800.5859375 1068.1640625 829.8828125 1026.5625 801.3671875z" />
    <glyph glyph-name="done"
      unicode="&#xE029;"
      horiz-adv-x="1000" d="M375 326.25L201.25 500L142.2916666666667 441.0416666666668L375 208.3333333333334L875 708.3333333333334L816.0416666666666 767.2916666666667z" />
    <glyph glyph-name="error-outline"
      unicode="&#xE02A;"
      horiz-adv-x="1000" d="M458.3333333333333 375H541.6666666666666V291.6666666666668H458.3333333333333zM458.3333333333333 708.3333333333334H541.6666666666666V458.3333333333334H458.3333333333333zM499.7916666666666 916.6666666666666C269.5833333333333 916.6666666666666 83.3333333333333 730.2083333333334 83.3333333333333 500S269.5833333333333 83.3333333333334 499.7916666666666 83.3333333333334S916.6666666666666 269.7916666666668 916.6666666666666 500S729.9999999999999 916.6666666666666 499.7916666666666 916.6666666666666zM500 166.6666666666668C315.8333333333333 166.6666666666668 166.6666666666667 315.8333333333333 166.6666666666667 500S315.8333333333333 833.3333333333334 500 833.3333333333334S833.3333333333333 684.1666666666667 833.3333333333333 500S684.1666666666667 166.6666666666668 500 166.6666666666668z" />
    <glyph glyph-name="event"
      unicode="&#xE02B;"
      horiz-adv-x="1000" d="M708.3333333333333 500H500V291.6666666666668H708.3333333333333V500zM666.6666666666666 958.3333333333334V875H333.3333333333333V958.3333333333334H250V875H208.3333333333333C162.0833333333333 875 125.4166666666667 837.5 125.4166666666667 791.6666666666667L125 208.3333333333334C125 162.5 162.0833333333334 125 208.3333333333333 125H791.6666666666666C837.5 125 875 162.5 875 208.3333333333334V791.6666666666667C875 837.5 837.5 875 791.6666666666666 875H750V958.3333333333334H666.6666666666666zM791.6666666666666 208.3333333333334H208.3333333333333V666.6666666666667H791.6666666666666V208.3333333333334z" />
    <glyph glyph-name="expand-less"
      unicode="&#xE02C;"
      horiz-adv-x="1000" d="M500 666.6666666666667L250 416.6666666666668L308.9583333333333 357.7083333333334L500 548.75L691.0416666666666 357.7083333333334L750 416.6666666666668z" />
    <glyph glyph-name="expand-more"
      unicode="&#xE02D;"
      horiz-adv-x="1000" d="M691.0416666666666 642.2916666666666L500 451.25L308.9583333333333 642.2916666666666L250 583.3333333333334L500 333.3333333333334L750 583.3333333333334z" />
    <glyph glyph-name="favorite-border"
      unicode="&#xE02E;"
      horiz-adv-x="1000" d="M687.5 875C615 875 545.4166666666666 841.25 500 788.125C454.5833333333333 841.25 385 875 312.5 875C183.9583333333333 875 83.3333333333333 774.375 83.3333333333333 645.8333333333334C83.3333333333333 488.5416666666667 225 360.0000000000001 439.5833333333333 165.2083333333334L500 110.4166666666666L560.4166666666666 165.2083333333334C775 360.0000000000001 916.6666666666666 488.5416666666667 916.6666666666666 645.8333333333334C916.6666666666666 774.375 816.0416666666666 875 687.5 875zM504.375 226.875L500 222.9166666666668L495.6249999999999 226.875C297.5 406.6666666666668 166.6666666666667 525.4166666666667 166.6666666666667 645.8333333333334C166.6666666666667 728.9583333333334 229.375 791.6666666666667 312.5 791.6666666666667C376.6666666666667 791.6666666666667 439.1666666666667 750.2083333333334 461.0416666666666 693.3333333333334H538.75C560.8333333333334 750.2083333333334 623.3333333333334 791.6666666666667 687.5 791.6666666666667C770.625 791.6666666666667 833.3333333333333 728.9583333333334 833.3333333333333 645.8333333333334C833.3333333333333 525.4166666666667 702.4999999999999 406.6666666666668 504.375 226.875z" />
    <glyph glyph-name="favorite-delete"
      unicode="&#xE02F;"
      horiz-adv-x="1000" d="M932.3489795918368 1000L500 566.1959183673468L67.6510204081633 1000L1.4448979591837 934.0061224489796L434.0183673469388 499.9918367346938L1.4448979591837 65.9632653061224L67.6510204081633 0L500 433.7897959183673L932.3489795918368 0L998.5551020408165 65.9632653061224L565.9816326530613 499.9918367346938L998.5551020408165 934.0061224489796z" />
    <glyph glyph-name="favorite"
      unicode="&#xE030;"
      horiz-adv-x="1000" d="M500 110.4166666666666L439.5833333333333 165.2083333333334C225 360.0000000000001 83.3333333333333 488.5416666666667 83.3333333333333 645.8333333333334C83.3333333333333 774.375 183.9583333333333 875 312.5 875C385 875 454.5833333333333 841.25 500 788.125C545.4166666666666 841.25 615 875 687.5 875C816.0416666666666 875 916.6666666666666 774.375 916.6666666666666 645.8333333333334C916.6666666666666 488.5416666666667 775 360.0000000000001 560.4166666666666 165.2083333333334L500 110.4166666666666z" />
    <glyph glyph-name="file-download"
      unicode="&#xE031;"
      horiz-adv-x="1000" d="M791.6666666666666 625H625V875H375V625H208.3333333333333L500 333.3333333333334L791.6666666666666 625zM208.3333333333333 250V166.6666666666668H791.6666666666666V250H208.3333333333333z" />
    <glyph glyph-name="filter-list"
      unicode="&#xE032;"
      horiz-adv-x="1000" d="M416.6666666666667 250H583.3333333333333V333.3333333333334H416.6666666666667V250zM125 750V666.6666666666667H875V750H125zM250 458.3333333333334H750V541.6666666666667H250V458.3333333333334z" />
    <glyph glyph-name="flag"
      unicode="&#xE033;"
      horiz-adv-x="1000" d="M600 750L583.3333333333333 833.3333333333334H208.3333333333333V125H291.6666666666667V416.6666666666668H525L541.6666666666666 333.3333333333334H833.3333333333333V750z" />
    <glyph glyph-name="help"
      unicode="&#xE034;"
      horiz-adv-x="1000" d="M500 916.6666666666666C269.7916666666667 916.6666666666666 83.3333333333333 730.2083333333334 83.3333333333333 500S269.7916666666667 83.3333333333334 500 83.3333333333334S916.6666666666666 269.7916666666668 916.6666666666666 500S730.2083333333333 916.6666666666666 500 916.6666666666666zM541.6666666666666 208.3333333333334H458.3333333333333V291.6666666666668H541.6666666666666V208.3333333333334zM627.7083333333333 531.0416666666667L590.4166666666666 492.7083333333334C560.4166666666666 462.7083333333334 541.6666666666666 437.5 541.6666666666666 375H458.3333333333333V395.8333333333334C458.3333333333333 441.875 477.0833333333333 483.5416666666667 507.0833333333333 513.75L558.9583333333333 566.25C573.9583333333334 581.25 583.3333333333333 602.0833333333333 583.3333333333333 625C583.3333333333333 671.0416666666667 546.0416666666666 708.3333333333334 500 708.3333333333334S416.6666666666667 671.0416666666667 416.6666666666667 625H333.3333333333333C333.3333333333333 717.0833333333334 407.9166666666667 791.6666666666667 500 791.6666666666667S666.6666666666666 717.0833333333334 666.6666666666666 625C666.6666666666666 588.3333333333333 651.875 555.2083333333333 627.7083333333333 531.0416666666667z" />
    <glyph glyph-name="history"
      unicode="&#xE035;"
      horiz-adv-x="1000" d="M541.4583333333333 875C334.1666666666667 875 166.6666666666667 707.0833333333333 166.6666666666667 500H41.6666666666667L203.9583333333333 337.7083333333334L206.875 331.6666666666668L375 500H250C250 661.0416666666667 380.625 791.6666666666667 541.6666666666666 791.6666666666667S833.3333333333333 661.0416666666667 833.3333333333333 500S702.7083333333334 208.3333333333334 541.6666666666666 208.3333333333334C461.0416666666666 208.3333333333334 388.3333333333333 241.25 335.625 293.9583333333334L276.6666666666667 235.0000000000001C344.375 167.0833333333335 437.9166666666667 125 541.4583333333333 125C748.7499999999999 125 916.6666666666666 292.9166666666668 916.6666666666666 500S748.7499999999999 875 541.4583333333333 875zM500 666.6666666666667V458.3333333333334L678.3333333333334 352.5000000000001L708.3333333333333 403.1250000000001L562.5 489.5833333333334V666.6666666666667H500z" />
    <glyph glyph-name="home"
      unicode="&#xE036;"
      horiz-adv-x="1000" d="M416.6666666666667 166.6666666666668V416.6666666666668H583.3333333333333V166.6666666666668H791.6666666666666V500H916.6666666666666L500 875L83.3333333333333 500H208.3333333333333V166.6666666666668z" />
    <glyph glyph-name="info"
      unicode="&#xE037;"
      horiz-adv-x="1000" d="M500 916.6666666666666C269.7916666666667 916.6666666666666 83.3333333333333 730.2083333333334 83.3333333333333 500S269.7916666666667 83.3333333333334 500 83.3333333333334S916.6666666666666 269.7916666666668 916.6666666666666 500S730.2083333333333 916.6666666666666 500 916.6666666666666zM541.6666666666666 291.6666666666668H458.3333333333333V541.6666666666667H541.6666666666666V291.6666666666668zM541.6666666666666 625H458.3333333333333V708.3333333333334H541.6666666666666V625z" />
    <glyph glyph-name="language"
      unicode="&#xE038;"
      horiz-adv-x="1000" d="M499.7916666666666 916.6666666666666C269.5833333333333 916.6666666666666 83.3333333333333 730.2083333333334 83.3333333333333 500S269.5833333333333 83.3333333333334 499.7916666666666 83.3333333333334C729.9999999999999 83.3333333333334 916.6666666666666 269.7916666666668 916.6666666666666 500S729.9999999999999 916.6666666666666 499.7916666666666 916.6666666666666zM788.3333333333333 666.6666666666667H665.4166666666666C651.875 718.75 632.9166666666666 768.75 607.9166666666666 815C684.5833333333333 788.75 748.3333333333334 735.625 788.3333333333334 666.6666666666667zM500 831.875C534.7916666666666 781.875 561.875 726.25 579.5833333333333 666.6666666666667H420.4166666666667C438.125 726.25 465.2083333333333 781.875 500 831.875zM177.5 416.6666666666668C170.625 443.3333333333334 166.6666666666667 471.25 166.6666666666667 500S170.625 556.6666666666667 177.5 583.3333333333334H318.125C314.7916666666667 556.0416666666667 312.5 528.3333333333334 312.5 500C312.5 471.6666666666667 314.7916666666667 443.9583333333334 318.3333333333333 416.6666666666668H177.5zM211.4583333333333 333.3333333333334H334.375C347.9166666666666 281.25 366.8749999999999 231.2500000000001 391.8749999999999 184.7916666666666C315.2083333333332 211.0416666666666 251.4583333333332 264.375 211.4583333333332 333.3333333333334zM334.375 666.6666666666667H211.4583333333333C251.4583333333333 735.625 315.2083333333333 788.9583333333334 391.8749999999999 815.2083333333333C366.8749999999999 768.75 347.9166666666666 718.75 334.375 666.6666666666667zM500 168.125C465.4166666666666 218.125 438.3333333333333 273.75 420.4166666666667 333.3333333333334H579.5833333333333C561.6666666666666 273.75 534.5833333333333 218.125 500 168.125zM597.5 416.6666666666668H402.5C398.5416666666667 443.9583333333334 395.8333333333333 471.6666666666667 395.8333333333333 500C395.8333333333333 528.3333333333334 398.5416666666667 556.0416666666667 402.5 583.3333333333334H597.5C601.4583333333334 556.0416666666667 604.1666666666666 528.3333333333334 604.1666666666666 500C604.1666666666666 471.6666666666667 601.4583333333334 443.9583333333334 597.5 416.6666666666668zM608.125 185.0000000000001C633.125 231.4583333333334 652.0833333333333 281.25 665.625 333.3333333333335H788.5416666666666C748.3333333333334 264.3750000000001 684.5833333333333 211.25 608.125 185.0000000000001zM681.6666666666666 416.6666666666668C684.9999999999999 443.9583333333334 687.5 471.6666666666667 687.5 500C687.5 528.3333333333334 685.2083333333333 556.0416666666667 681.6666666666666 583.3333333333334H822.2916666666666C829.1666666666665 556.6666666666667 833.3333333333333 528.75 833.3333333333333 500S829.375 443.3333333333334 822.2916666666666 416.6666666666668H681.6666666666666z" />
    <glyph glyph-name="lightbulb-outline"
      unicode="&#xE039;"
      horiz-adv-x="1000" d="M375 125C375 102.0833333333334 393.75 83.3333333333334 416.6666666666667 83.3333333333334H583.3333333333333C606.25 83.3333333333334 625 102.0833333333334 625 125V166.6666666666668H375V125zM500 916.6666666666666C338.9583333333333 916.6666666666666 208.3333333333333 786.0416666666667 208.3333333333333 625C208.3333333333333 525.8333333333335 257.9166666666667 438.5416666666668 333.3333333333333 385.8333333333334V291.6666666666668C333.3333333333333 268.75 352.0833333333333 250 375 250H625C647.9166666666666 250 666.6666666666666 268.75 666.6666666666666 291.6666666666668V385.8333333333334C742.0833333333333 438.5416666666668 791.6666666666666 525.8333333333333 791.6666666666666 625C791.6666666666666 786.0416666666667 661.0416666666666 916.6666666666666 500 916.6666666666666zM618.9583333333334 454.1666666666667L583.3333333333333 429.375V333.3333333333334H416.6666666666667V429.1666666666668L381.0416666666667 453.9583333333334C325 493.1250000000001 291.6666666666667 556.875 291.6666666666667 624.7916666666666C291.6666666666667 739.5833333333333 385.2083333333334 833.125 500 833.125S708.3333333333333 739.5833333333333 708.3333333333333 624.7916666666666C708.3333333333333 557.0833333333333 674.9999999999999 493.3333333333334 618.9583333333334 454.1666666666666z" />
    <glyph glyph-name="link"
      unicode="&#xE03A;"
      horiz-adv-x="1000" d="M162.5 500C162.5 571.25 220.4166666666667 629.1666666666667 291.6666666666667 629.1666666666667H458.3333333333333V708.3333333333334H291.6666666666667C176.6666666666667 708.3333333333334 83.3333333333333 615 83.3333333333333 500S176.6666666666667 291.6666666666668 291.6666666666667 291.6666666666668H458.3333333333333V370.8333333333334H291.6666666666667C220.4166666666667 370.8333333333334 162.5 428.7500000000001 162.5 500zM333.3333333333333 458.3333333333334H666.6666666666666V541.6666666666667H333.3333333333333V458.3333333333334zM708.3333333333333 708.3333333333334H541.6666666666666V629.1666666666667H708.3333333333333C779.5833333333334 629.1666666666667 837.5 571.25 837.5 500S779.5833333333334 370.8333333333334 708.3333333333333 370.8333333333334H541.6666666666666V291.6666666666668H708.3333333333333C823.3333333333333 291.6666666666668 916.6666666666666 385 916.6666666666666 500S823.3333333333333 708.3333333333334 708.3333333333333 708.3333333333334z" />
    <glyph glyph-name="location-searching"
      unicode="&#xE03B;"
      horiz-adv-x="1000" d="M872.5 538.125C853.3333333333333 711.875 715.4166666666667 849.7916666666667 541.6666666666666 868.9583333333334V954.7916666666666H458.3333333333333V868.9583333333334C284.5833333333333 849.7916666666667 146.6666666666666 711.875 127.5 538.125H41.6666666666667V454.7916666666666H127.5C146.6666666666667 281.0416666666667 284.5833333333333 143.125 458.3333333333333 123.9583333333333V38.125H541.6666666666666V123.9583333333333C715.4166666666667 143.125 853.3333333333333 281.0416666666667 872.5 454.7916666666666H958.3333333333331V538.125H872.5zM500 204.7916666666666C338.9583333333333 204.7916666666666 208.3333333333333 335.4166666666667 208.3333333333333 496.4583333333333S338.9583333333333 788.125 500 788.125S791.6666666666666 657.5 791.6666666666666 496.4583333333333S661.0416666666666 204.7916666666666 500 204.7916666666666z" />
    <glyph glyph-name="mode-comment"
      unicode="&#xE03C;"
      horiz-adv-x="1000" d="M916.2499999999998 833.3333333333334C916.2499999999998 879.375 879.3749999999998 916.6666666666666 833.3333333333333 916.6666666666666H166.6666666666667C120.625 916.6666666666666 83.3333333333333 879.375 83.3333333333333 833.3333333333334V333.3333333333334C83.3333333333333 287.2916666666668 120.625 250 166.6666666666667 250H750L916.6666666666666 83.3333333333334L916.2499999999998 833.3333333333334z" />
    <glyph glyph-name="mode-edit"
      unicode="&#xE03D;"
      horiz-adv-x="1000" d="M125 281.25V125H281.25L742.2916666666665 586.0416666666667L586.0416666666665 742.2916666666667L125 281.25zM862.7083333333333 706.4583333333334C878.9583333333333 722.7083333333333 878.9583333333333 749.1666666666667 862.7083333333333 765.4166666666667L765.4166666666665 862.7083333333334C749.1666666666665 878.9583333333334 722.7083333333333 878.9583333333334 706.4583333333333 862.7083333333334L630.2083333333333 786.4583333333334L786.4583333333333 630.2083333333334L862.7083333333333 706.4583333333334z" />
    <glyph glyph-name="more-vert"
      unicode="&#xE03E;"
      horiz-adv-x="1000" d="M500 666.6666666666667C546.0416666666666 666.6666666666667 583.3333333333333 703.9583333333333 583.3333333333333 750S546.0416666666666 833.3333333333334 500 833.3333333333334S416.6666666666667 796.0416666666667 416.6666666666667 750S453.9583333333333 666.6666666666667 500 666.6666666666667zM500 583.3333333333334C453.9583333333333 583.3333333333334 416.6666666666667 546.0416666666667 416.6666666666667 500S453.9583333333333 416.6666666666668 500 416.6666666666668S583.3333333333333 453.9583333333334 583.3333333333333 500S546.0416666666666 583.3333333333334 500 583.3333333333334zM500 333.3333333333334C453.9583333333333 333.3333333333334 416.6666666666667 296.0416666666668 416.6666666666667 250S453.9583333333333 166.6666666666668 500 166.6666666666668S583.3333333333333 203.9583333333334 583.3333333333333 250S546.0416666666666 333.3333333333334 500 333.3333333333334z" />
    <glyph glyph-name="navigate-before"
      unicode="&#xE03F;"
      horiz-adv-x="1000" d="M642.2916666666666 691.0416666666667L583.3333333333333 750L333.3333333333333 500L583.3333333333333 250L642.2916666666666 308.9583333333334L451.25 500z" />
    <glyph glyph-name="navigate-next"
      unicode="&#xE040;"
      horiz-adv-x="1000" d="M416.6666666666667 750L357.7083333333334 691.0416666666667L548.75 500L357.7083333333334 308.9583333333334L416.6666666666667 250L666.6666666666666 500z" />
    <glyph glyph-name="person-outline"
      unicode="&#xE041;"
      horiz-adv-x="1000" d="M500 754.1666666666666C548.3333333333333 754.1666666666666 587.5 715 587.5 666.6666666666667S548.3333333333333 579.1666666666667 500 579.1666666666667S412.5 618.3333333333334 412.5 666.6666666666667S451.6666666666666 754.1666666666666 500 754.1666666666666M500 379.1666666666668C623.9583333333333 379.1666666666668 754.1666666666666 318.5416666666668 754.1666666666666 291.6666666666668V245.8333333333334H245.8333333333334V291.6666666666668C245.8333333333334 318.5416666666668 376.0416666666667 379.1666666666668 500 379.1666666666668M500 833.3333333333334C407.9166666666667 833.3333333333334 333.3333333333333 758.75 333.3333333333333 666.6666666666667C333.3333333333333 574.7916666666667 407.9166666666667 500 500 500S666.6666666666666 574.7916666666667 666.6666666666666 666.6666666666667C666.6666666666666 758.75 592.0833333333334 833.3333333333334 500 833.3333333333334zM500 458.3333333333334C388.9583333333334 458.3333333333334 166.6666666666667 402.7083333333334 166.6666666666667 291.6666666666668V166.6666666666668H833.3333333333333V291.6666666666668C833.3333333333333 402.7083333333334 611.0416666666666 458.3333333333334 500 458.3333333333334z" />
    <glyph glyph-name="place"
      unicode="&#xE042;"
      horiz-adv-x="1000" d="M500 916.6666666666666C338.9583333333333 916.6666666666666 208.3333333333333 786.0416666666667 208.3333333333333 625C208.3333333333333 406.25 500 83.3333333333334 500 83.3333333333334S791.6666666666666 406.25 791.6666666666666 625C791.6666666666666 786.0416666666667 661.0416666666666 916.6666666666666 500 916.6666666666666zM500 520.8333333333334C442.5 520.8333333333334 395.8333333333333 567.5 395.8333333333333 625S442.5 729.1666666666667 500 729.1666666666667S604.1666666666666 682.5 604.1666666666666 625S557.4999999999999 520.8333333333334 500 520.8333333333334z" />
    <glyph glyph-name="radio-button-checked"
      unicode="&#xE043;"
      horiz-adv-x="1000" d="M500 708.3333333333334C385 708.3333333333334 291.6666666666667 615 291.6666666666667 500S385 291.6666666666668 500 291.6666666666668S708.3333333333333 385 708.3333333333333 500S615 708.3333333333334 500 708.3333333333334zM500 916.6666666666666C269.7916666666667 916.6666666666666 83.3333333333333 730.2083333333334 83.3333333333333 500S269.7916666666667 83.3333333333334 500 83.3333333333334S916.6666666666666 269.7916666666668 916.6666666666666 500S730.2083333333333 916.6666666666666 500 916.6666666666666zM500 166.6666666666668C315.8333333333333 166.6666666666668 166.6666666666667 315.8333333333333 166.6666666666667 500S315.8333333333333 833.3333333333334 500 833.3333333333334S833.3333333333333 684.1666666666667 833.3333333333333 500S684.1666666666667 166.6666666666668 500 166.6666666666668z" />
    <glyph glyph-name="radio-button-unchecked"
      unicode="&#xE044;"
      horiz-adv-x="1000" d="M500 916.6666666666666C269.7916666666667 916.6666666666666 83.3333333333333 730.2083333333334 83.3333333333333 500S269.7916666666667 83.3333333333334 500 83.3333333333334S916.6666666666666 269.7916666666668 916.6666666666666 500S730.2083333333333 916.6666666666666 500 916.6666666666666zM500 166.6666666666668C315.8333333333333 166.6666666666668 166.6666666666667 315.8333333333333 166.6666666666667 500S315.8333333333333 833.3333333333334 500 833.3333333333334S833.3333333333333 684.1666666666667 833.3333333333333 500S684.1666666666667 166.6666666666668 500 166.6666666666668z" />
    <glyph glyph-name="remove-circle"
      unicode="&#xE045;"
      horiz-adv-x="1000" d="M500 916.6666666666666C269.7916666666667 916.6666666666666 83.3333333333333 730.2083333333334 83.3333333333333 500S269.7916666666667 83.3333333333334 500 83.3333333333334S916.6666666666666 269.7916666666668 916.6666666666666 500S730.2083333333333 916.6666666666666 500 916.6666666666666zM708.3333333333333 458.3333333333334H291.6666666666667V541.6666666666667H708.3333333333333V458.3333333333334z" />
    <glyph glyph-name="remove"
      unicode="&#xE046;"
      horiz-adv-x="1000" d="M791.6666666666666 458.3333333333334H208.3333333333333V541.6666666666667H791.6666666666666V458.3333333333334z" />
    <glyph glyph-name="rss-feed"
      unicode="&#xE047;"
      horiz-adv-x="1000" d="M166.6666666666666 257.5A90.8333333333333 90.8333333333333 0 0 1 348.3333333333333 257.5A90.8333333333333 90.8333333333333 0 0 1 166.6666666666666 257.5M166.6666666666667 814.7916666666666V696.875C459.5833333333334 696.875 697.0833333333333 459.375 697.0833333333333 166.4583333333333H815C814.7916666666666 524.5833333333334 524.5833333333333 814.7916666666666 166.6666666666667 814.7916666666666zM166.6666666666667 579.1666666666667V461.25C329.375 461.25 461.25 329.1666666666667 461.25 166.6666666666668H579.1666666666666C579.1666666666666 394.375 394.375 579.1666666666667 166.6666666666667 579.1666666666667z" />
    <glyph glyph-name="search"
      unicode="&#xE048;"
      horiz-adv-x="1000" d="M863.5 191.9583333333334L685.25 370.2083333333333C780.7499999999999 492.9999999999999 769.8333333333334 673.125 659.7916666666666 783.125C600.6666666666666 843.1666666666667 521.5416666666666 875 437.875 875A312.375 312.375 0 0 1 215.9583333333334 783.125C156.8333333333333 724.9166666666667 125 645.8333333333334 125 562.125C125 478.4583333333334 157.75 399.3333333333334 216.875 340.2083333333334A311.6666666666667 311.6666666666667 0 0 1 437.875 249.25A316.5 316.5 0 0 1 630.6666666666666 314.75L808.0416666666666 136.5A39.4166666666667 39.4166666666667 0 0 1 835.3333333333334 124.6666666666668C845.3333333333333 124.6666666666668 855.3333333333334 129.2083333333335 862.6250000000001 136.5C878.9583333333334 152.8750000000001 878.9583333333334 176.5000000000001 863.5000000000001 191.9583333333334zM670.7083333333334 563.0416666666667C670.7083333333334 500.2916666666667 646.125 441.1666666666668 602.5 397.5A230.3333333333333 230.3333333333333 0 0 0 436.9583333333334 328.375A230.3333333333333 230.3333333333333 0 0 0 271.4166666666668 397.5416666666668C180.5000000000001 488.4583333333334 180.5000000000001 636.7083333333334 271.4166666666668 728.5833333333334A231.875 231.875 0 0 0 436.9583333333334 797.7083333333334C498.7916666666667 797.7083333333334 557.9166666666667 773.125 602.5 728.5416666666667A233.2083333333334 233.2083333333334 0 0 0 670.7083333333334 563.0416666666667z" />
    <glyph glyph-name="share"
      unicode="&#xE049;"
      horiz-adv-x="1000" d="M750 329.7916666666667C718.3333333333333 329.7916666666667 689.7916666666666 317.4999999999999 668.125 297.7083333333334L371.25 470.8333333333334C373.5416666666667 480.2083333333334 375 490.0000000000001 375 500S373.5416666666667 519.7916666666667 371.25 529.1666666666667L665 700.625C687.2916666666666 679.7916666666667 717.0833333333334 666.875 750 666.875C818.9583333333334 666.875 875 722.9166666666666 875 791.875S818.9583333333334 916.875 750 916.875S625 860.8333333333333 625 791.875C625 781.875 626.4583333333333 772.0833333333333 628.75 762.7083333333333L335 591.25C312.7083333333333 612.0833333333333 282.9166666666667 625 250 625C181.0416666666666 625 125 568.9583333333333 125 499.9999999999999S181.0416666666666 375 250 375C282.9166666666667 375 312.7083333333333 387.9166666666667 335 408.75L631.8749999999999 235.6249999999999C629.7916666666665 226.8749999999999 628.5416666666666 217.7083333333333 628.5416666666666 208.3333333333333C628.5416666666666 141.2499999999999 682.9166666666666 86.8749999999999 750 86.8749999999999S871.4583333333333 141.2499999999999 871.4583333333333 208.3333333333333S817.0833333333333 329.7916666666665 750 329.7916666666665z" />
    <glyph glyph-name="tag-faces"
      unicode="&#xE04A;"
      horiz-adv-x="1000" d="M499.7916666666666 916.6666666666666C269.5833333333333 916.6666666666666 83.3333333333333 730.2083333333334 83.3333333333333 500S269.5833333333333 83.3333333333334 499.7916666666666 83.3333333333334C729.9999999999999 83.3333333333334 916.6666666666666 269.7916666666668 916.6666666666666 500S729.9999999999999 916.6666666666666 499.7916666666666 916.6666666666666zM500 166.6666666666668C315.8333333333333 166.6666666666668 166.6666666666667 315.8333333333333 166.6666666666667 500S315.8333333333333 833.3333333333334 500 833.3333333333334S833.3333333333333 684.1666666666667 833.3333333333333 500S684.1666666666667 166.6666666666668 500 166.6666666666668zM645.8333333333333 541.6666666666667C680.4166666666665 541.6666666666667 708.3333333333333 569.5833333333334 708.3333333333333 604.1666666666667S680.4166666666665 666.6666666666667 645.8333333333333 666.6666666666667S583.3333333333333 638.75 583.3333333333333 604.1666666666667S611.25 541.6666666666667 645.8333333333333 541.6666666666667zM354.1666666666667 541.6666666666667C388.75 541.6666666666667 416.6666666666667 569.5833333333334 416.6666666666667 604.1666666666667S388.75 666.6666666666667 354.1666666666667 666.6666666666667S291.6666666666667 638.75 291.6666666666667 604.1666666666667S319.5833333333333 541.6666666666667 354.1666666666667 541.6666666666667zM500 270.8333333333334C597.0833333333333 270.8333333333334 679.375 331.4583333333333 712.7083333333333 416.6666666666668H287.2916666666667C320.625 331.4583333333333 402.9166666666667 270.8333333333334 500 270.8333333333334z" />
    <glyph glyph-name="wb-sunny"
      unicode="&#xE04B;"
      horiz-adv-x="1000" d="M281.4583333333333 798.125L206.875 872.9166666666667L147.9166666666667 813.9583333333334L222.7083333333333 739.1666666666667L281.4583333333333 798.125zM166.6666666666667 562.5H41.6666666666667V479.1666666666667H166.6666666666667V562.5zM541.6666666666666 977.0833333333334H458.3333333333333V854.1666666666667H541.6666666666666V977.0833333333334zM852.0833333333333 813.9583333333334L793.125 872.9166666666667L718.3333333333334 798.125L777.2916666666666 739.1666666666667L852.0833333333334 813.9583333333334zM718.5416666666665 243.5416666666667L793.3333333333333 168.7499999999999L852.2916666666665 227.7083333333333L777.4999999999998 302.5L718.5416666666665 243.5416666666667zM833.3333333333333 562.5V479.1666666666667H958.3333333333331V562.5H833.3333333333333zM500 770.8333333333334C361.875 770.8333333333334 250 658.9583333333333 250 520.8333333333334S361.875 270.8333333333334 500 270.8333333333334S750 382.7083333333334 750 520.8333333333334S638.1249999999999 770.8333333333334 500 770.8333333333334zM458.3333333333333 64.5833333333334H541.6666666666666V187.5H458.3333333333333V64.5833333333334zM147.9166666666667 227.7083333333334L206.875 168.7500000000001L281.6666666666667 243.5416666666667L222.7083333333333 302.5L147.9166666666667 227.7083333333333z" />
    <glyph glyph-name="zoom-in"
      unicode="&#xE04C;"
      horiz-adv-x="1000" d="M693.7499999999999 381.25H654.1666666666666L639.5833333333333 395.8333333333334C689.5833333333334 454.1666666666667 718.75 529.1666666666667 718.75 610.4166666666667C720.8333333333334 789.5833333333334 572.9166666666666 937.5 391.6666666666667 937.5S62.5 789.5833333333334 62.5 608.3333333333333S210.4166666666667 279.1666666666667 391.6666666666667 279.1666666666667C472.9166666666666 279.1666666666667 547.9166666666666 308.3333333333333 606.25 358.3333333333334L620.8333333333333 343.75V304.1666666666668L872.9166666666666 52.0833333333334L947.9166666666666 127.0833333333334L693.7499999999999 381.25zM391.6666666666667 381.25C266.6666666666667 381.25 164.5833333333334 483.3333333333334 164.5833333333334 608.3333333333335S266.6666666666667 835.4166666666666 391.6666666666667 835.4166666666666S618.75 733.3333333333333 618.75 608.3333333333333S516.6666666666666 381.25 391.6666666666667 381.25zM518.7499999999999 583.3333333333334H416.6666666666667V483.3333333333334H366.6666666666667V583.3333333333334H266.6666666666667V633.3333333333333H366.6666666666667V733.3333333333333H416.6666666666667V633.3333333333333H516.6666666666666V583.3333333333334z" />
    <glyph glyph-name="icon-content-facebook"
      unicode="&#xE04D;"
      horiz-adv-x="1000" d="M0 1000H1000V0H0V1000zM870.8333333333333 916.6666666666666H129.1666666666667C104.1666666666667 916.6666666666666 83.3333333333333 895.8333333333334 83.3333333333333 870.8333333333334V129.1666666666666C83.3333333333333 104.1666666666667 104.1666666666667 83.3333333333334 129.1666666666667 83.3333333333334H529.1666666666666V395.8333333333334H420.8333333333333V520.8333333333334H529.1666666666666V616.6666666666667C529.1666666666666 725 595.8333333333333 783.3333333333334 691.6666666666665 783.3333333333334C737.4999999999999 783.3333333333334 779.1666666666666 779.1666666666667 787.4999999999999 779.1666666666667V666.6666666666667L720.8333333333331 666.6666666666667C666.6666666666665 666.6666666666667 658.3333333333331 641.6666666666667 658.3333333333331 604.1666666666667V525H783.3333333333331L766.6666666666665 400H658.3333333333333V83.3333333333334H870.8333333333333C895.8333333333333 83.3333333333334 916.6666666666666 104.1666666666667 916.6666666666666 129.1666666666668V870.8333333333334C916.6666666666666 895.8333333333334 895.8333333333333 916.6666666666666 870.8333333333333 916.6666666666666" />
    <glyph glyph-name="icon-content-facebook_hover"
      unicode="&#xE04E;"
      horiz-adv-x="1000" d="M0 1000H1000V0H0V1000zM870.8333333333333 916.6666666666666H129.1666666666667C104.1666666666667 916.6666666666666 83.3333333333333 895.8333333333334 83.3333333333333 870.8333333333334V129.1666666666666C83.3333333333333 104.1666666666667 104.1666666666667 83.3333333333334 129.1666666666667 83.3333333333334H529.1666666666666V395.8333333333334H420.8333333333333V520.8333333333334H529.1666666666666V616.6666666666667C529.1666666666666 725 595.8333333333333 783.3333333333334 691.6666666666665 783.3333333333334C737.4999999999999 783.3333333333334 779.1666666666666 779.1666666666667 787.4999999999999 779.1666666666667V666.6666666666667L720.8333333333331 666.6666666666667C666.6666666666665 666.6666666666667 658.3333333333331 641.6666666666667 658.3333333333331 604.1666666666667V525H783.3333333333331L766.6666666666665 400H658.3333333333333V83.3333333333334H870.8333333333333C895.8333333333333 83.3333333333334 916.6666666666666 104.1666666666667 916.6666666666666 129.1666666666668V870.8333333333334C916.6666666666666 895.8333333333334 895.8333333333333 916.6666666666666 870.8333333333333 916.6666666666666" />
    <glyph glyph-name="icon-content-pinterest"
      unicode="&#xE04F;"
      horiz-adv-x="1000" d="M858.3333333333334 916.6666666666666H141.6666666666667C108.3333333333333 916.6666666666666 83.3333333333333 891.6666666666666 83.3333333333333 858.3333333333334V141.6666666666669C83.3333333333333 108.3333333333335 108.3333333333333 83.3333333333334 141.6666666666667 83.3333333333334H333.3333333333333C325 216.6666666666666 370.8333333333333 325.0000000000001 391.6666666666667 433.3333333333334C350 504.1666666666667 400 645.8333333333334 487.4999999999999 608.3333333333335C599.9999999999999 562.5000000000001 391.6666666666666 341.6666666666668 529.1666666666666 316.6666666666668C674.9999999999999 287.5000000000001 733.3333333333334 562.5000000000001 641.6666666666665 654.1666666666667C512.4999999999999 783.3333333333334 270.8333333333333 658.3333333333334 300 470.8333333333334C308.3333333333333 425.0000000000001 354.1666666666667 412.5 316.6666666666667 350C237.5 366.6666666666668 208.3333333333333 433.3333333333334 212.5 520.8333333333334C216.6666666666666 662.5 337.5 762.5 458.3333333333333 775C612.4999999999999 791.6666666666667 758.3333333333333 720.8333333333333 779.1666666666666 570.8333333333333C799.9999999999999 404.1666666666667 708.3333333333333 229.1666666666668 541.6666666666666 241.6666666666667C495.8333333333333 245.8333333333334 479.1666666666666 266.6666666666667 441.6666666666667 291.6666666666665C425 212.5 408.3333333333333 137.4999999999999 366.6666666666667 83.3333333333333H849.9999999999999C883.3333333333333 83.3333333333333 908.3333333333331 108.3333333333333 908.3333333333331 141.6666666666665V858.3333333333334C920.8333333333334 891.6666666666666 891.6666666666665 916.6666666666666 858.3333333333334 916.6666666666666zM545.8333333333333 241.6666666666668C712.5 229.1666666666668 804.1666666666666 408.3333333333334 783.3333333333334 570.8333333333335C766.6666666666667 716.6666666666667 616.6666666666666 791.6666666666667 462.5000000000001 775.0000000000001C341.6666666666667 762.5000000000001 220.8333333333334 662.5000000000001 216.6666666666667 525.0000000000001C212.5000000000001 441.6666666666668 237.5000000000001 375.0000000000001 320.8333333333334 354.1666666666668C358.3333333333334 416.6666666666668 308.3333333333334 433.3333333333335 304.1666666666667 475.0000000000001C275 662.5000000000001 516.6666666666666 787.5000000000001 645.8333333333333 658.3333333333335C733.3333333333334 570.8333333333335 674.9999999999999 291.6666666666668 533.3333333333334 320.8333333333335C395.8333333333333 345.8333333333335 600 566.6666666666667 491.6666666666667 612.5000000000001C404.1666666666667 650.0000000000002 354.1666666666667 504.1666666666669 395.8333333333333 437.5000000000003C370.8333333333333 325.0000000000001 325 216.6666666666666 333.3333333333333 83.3333333333334H375C416.6666666666667 137.5000000000001 433.3333333333333 212.5000000000001 450 291.6666666666668C483.3333333333333 266.6666666666667 504.1666666666666 245.8333333333334 545.8333333333333 241.6666666666668z" />
    <glyph glyph-name="icon-content-pinterest_hover"
      unicode="&#xE050;"
      horiz-adv-x="1000" d="M858.3333333333334 916.6666666666666H141.6666666666667C108.3333333333333 916.6666666666666 83.3333333333333 891.6666666666666 83.3333333333333 858.3333333333334V141.6666666666669C83.3333333333333 108.3333333333335 108.3333333333333 83.3333333333334 141.6666666666667 83.3333333333334H333.3333333333333C325 216.6666666666666 370.8333333333333 325.0000000000001 391.6666666666667 433.3333333333334C350 504.1666666666667 400 645.8333333333334 487.4999999999999 608.3333333333335C599.9999999999999 562.5000000000001 391.6666666666666 341.6666666666668 529.1666666666666 316.6666666666668C674.9999999999999 287.5000000000001 733.3333333333334 562.5000000000001 641.6666666666665 654.1666666666667C512.4999999999999 783.3333333333334 270.8333333333333 658.3333333333334 300 470.8333333333334C308.3333333333333 425.0000000000001 354.1666666666667 412.5 316.6666666666667 350C237.5 366.6666666666668 208.3333333333333 433.3333333333334 212.5 520.8333333333334C216.6666666666666 662.5 337.5 762.5 458.3333333333333 775C612.4999999999999 791.6666666666667 758.3333333333333 720.8333333333333 779.1666666666666 570.8333333333333C799.9999999999999 404.1666666666667 708.3333333333333 229.1666666666668 541.6666666666666 241.6666666666667C495.8333333333333 245.8333333333334 479.1666666666666 266.6666666666667 441.6666666666667 291.6666666666665C425 212.5 408.3333333333333 137.4999999999999 366.6666666666667 83.3333333333333H849.9999999999999C883.3333333333333 83.3333333333333 908.3333333333331 108.3333333333333 908.3333333333331 141.6666666666665V858.3333333333334C920.8333333333334 891.6666666666666 891.6666666666665 916.6666666666666 858.3333333333334 916.6666666666666zM545.8333333333333 241.6666666666668C712.5 229.1666666666668 804.1666666666666 408.3333333333334 783.3333333333334 570.8333333333335C766.6666666666667 716.6666666666667 616.6666666666666 791.6666666666667 462.5000000000001 775.0000000000001C341.6666666666667 762.5000000000001 220.8333333333334 662.5000000000001 216.6666666666667 525.0000000000001C212.5000000000001 441.6666666666668 237.5000000000001 375.0000000000001 320.8333333333334 354.1666666666668C358.3333333333334 416.6666666666668 308.3333333333334 433.3333333333335 304.1666666666667 475.0000000000001C275 662.5000000000001 516.6666666666666 787.5000000000001 645.8333333333333 658.3333333333335C733.3333333333334 570.8333333333335 674.9999999999999 291.6666666666668 533.3333333333334 320.8333333333335C395.8333333333333 345.8333333333335 600 566.6666666666667 491.6666666666667 612.5000000000001C404.1666666666667 650.0000000000002 354.1666666666667 504.1666666666669 395.8333333333333 437.5000000000003C370.8333333333333 325.0000000000001 325 216.6666666666666 333.3333333333333 83.3333333333334H375C416.6666666666667 137.5000000000001 433.3333333333333 212.5000000000001 450 291.6666666666668C483.3333333333333 266.6666666666667 504.1666666666666 245.8333333333334 545.8333333333333 241.6666666666668z" />
    <glyph glyph-name="icon-content-twitter"
      unicode="&#xE051;"
      horiz-adv-x="1000" d="M875 916.6666666666666H125C104.1666666666667 916.6666666666666 83.3333333333333 895.8333333333334 83.3333333333333 875V125C83.3333333333333 104.1666666666667 104.1666666666667 83.3333333333334 125 83.3333333333334H875C895.8333333333333 83.3333333333334 916.6666666666666 104.1666666666667 916.6666666666666 125V875C916.6666666666666 895.8333333333334 895.8333333333333 916.6666666666666 875 916.6666666666666zM562.0282531920833 551.1904373811667L804.7487095897916 833.3333333333334H747.231730508L536.4775876120416 588.352621570225L368.1488725889709 833.3333333333334H174.00162999185L428.547677261625 462.8791089377917L174.00162999185 167.0089649551667H231.5218690573208L454.0836729149584 425.7169247487084L631.8511274110416 167.0089649551667H825.9983700081667L562.0141265960416 551.1904373811667H562.0282531920833zM483.2464004346667 459.6153219233751L457.4555827220833 496.5042108122917L252.2472154305875 790.0329258353709H340.5949470252666L506.2004889975417 553.1458842705833L531.991306710125 516.2569953817084L747.2588970388332 208.3401249660418H658.9111654441666L483.2464004346667 459.6011953273751V459.6153219233751z" />
    <glyph glyph-name="icon-content-twitter_hover"
      unicode="&#xE052;"
      horiz-adv-x="1000" d="M875 916.6666666666666H125C104.1666666666667 916.6666666666666 83.3333333333333 895.8333333333334 83.3333333333333 875V125C83.3333333333333 104.1666666666667 104.1666666666667 83.3333333333334 125 83.3333333333334H875C895.8333333333333 83.3333333333334 916.6666666666666 104.1666666666667 916.6666666666666 125V875C916.6666666666666 895.8333333333334 895.8333333333333 916.6666666666666 875 916.6666666666666zM562.0282531920833 551.1904373811667L804.7487095897916 833.3333333333334H747.231730508L536.4775876120416 588.352621570225L368.1488725889709 833.3333333333334H174.00162999185L428.547677261625 462.8791089377917L174.00162999185 167.0089649551667H231.5218690573208L454.0836729149584 425.7169247487084L631.8511274110416 167.0089649551667H825.9983700081667L562.0141265960416 551.1904373811667H562.0282531920833zM483.2464004346667 459.6153219233751L457.4555827220833 496.5042108122917L252.2472154305875 790.0329258353709H340.5949470252666L506.2004889975417 553.1458842705833L531.991306710125 516.2569953817084L747.2588970388332 208.3401249660418H658.9111654441666L483.2464004346667 459.6011953273751V459.6153219233751z" />
    <glyph glyph-name="icon-content-whatsapp"
      unicode="&#xE053;"
      horiz-adv-x="1000" d="M849.9999999999999 83.3333333333334H150C112.5 83.3333333333334 83.3333333333333 112.5 83.3333333333333 150.0000000000001V850C83.3333333333333 887.5 112.5 916.6666666666666 150 916.6666666666666H850C887.5 916.6666666666666 916.6666666666666 887.5 916.6666666666666 850V150C916.6666666666666 112.5 887.5 83.3333333333334 849.9999999999999 83.3333333333334zM737.4999999999999 716.6666666666667C679.1666666666666 775 599.9999999999999 812.5 508.3333333333333 812.5C333.3333333333333 812.5 187.5 670.8333333333333 187.5 491.6666666666667C187.5 437.5 204.1666666666666 383.3333333333334 233.3333333333333 333.3333333333334L187.5 166.6666666666668L358.3333333333333 212.5000000000001C404.1666666666667 187.5 458.3333333333333 170.8333333333335 512.5 170.8333333333335L512.5 170.8333333333335C687.5 170.8333333333335 833.3333333333333 312.5 833.3333333333333 491.6666666666667C829.1666666666665 579.1666666666667 795.8333333333334 658.3333333333334 737.4999999999999 716.6666666666667zM508.3333333333333 225L508.3333333333333 225C462.4999999999999 225 412.5 237.5 370.8333333333333 262.4999999999999L358.3333333333332 270.8333333333333L258.3333333333332 245.8333333333332L283.3333333333332 345.8333333333332L274.9999999999999 358.3333333333333C249.9999999999999 404.1666666666665 233.3333333333332 449.9999999999999 233.3333333333332 495.8333333333331C233.3333333333332 641.6666666666665 349.9999999999999 758.3333333333331 495.8333333333331 758.3333333333331C566.6666666666665 758.3333333333331 633.3333333333331 729.1666666666665 683.3333333333333 679.1666666666665C733.3333333333333 629.1666666666665 762.4999999999999 562.4999999999999 762.4999999999999 491.6666666666665C779.1666666666666 345.8333333333334 654.1666666666666 225 508.3333333333333 225zM654.1666666666666 429.1666666666668C645.8333333333333 433.3333333333334 608.3333333333333 450.0000000000001 599.9999999999999 454.1666666666667C591.6666666666666 458.3333333333334 591.6666666666666 458.3333333333334 583.3333333333333 450.0000000000001C579.1666666666666 441.6666666666668 562.5 425.0000000000001 558.3333333333334 416.6666666666668C554.1666666666666 412.5 545.8333333333333 408.3333333333334 541.6666666666666 412.5C533.3333333333334 416.6666666666668 508.3333333333333 425.0000000000001 479.1666666666666 454.1666666666667C458.3333333333333 475 437.5 500 433.3333333333333 508.3333333333334C429.1666666666667 516.6666666666667 433.3333333333333 520.8333333333335 437.5 525.0000000000001C441.6666666666667 529.1666666666667 445.8333333333333 537.5000000000001 450 541.6666666666667S454.1666666666666 550 458.3333333333333 558.3333333333335C462.4999999999999 562.5000000000001 458.3333333333333 570.8333333333335 458.3333333333333 575.0000000000001C454.1666666666666 579.1666666666667 441.6666666666667 620.8333333333335 433.3333333333333 633.3333333333335C425 641.6666666666667 416.6666666666667 641.6666666666667 412.5 641.6666666666667S400 641.6666666666667 395.8333333333333 641.6666666666667C391.6666666666667 641.6666666666667 383.3333333333333 637.5 375 629.1666666666667S345.8333333333334 604.1666666666667 345.8333333333334 562.5S375 483.3333333333334 379.1666666666667 483.3333333333334C383.3333333333334 479.1666666666667 433.3333333333334 400 516.6666666666667 362.5C533.3333333333334 354.1666666666668 550.0000000000001 345.8333333333334 562.5 345.8333333333334C579.1666666666667 337.5 600 341.6666666666667 612.5 341.6666666666667C629.1666666666667 345.8333333333334 658.3333333333334 358.3333333333334 666.6666666666666 379.1666666666668C674.9999999999999 395.8333333333334 674.9999999999999 412.5 670.8333333333334 416.6666666666668C670.8333333333334 420.8333333333334 662.5 425 654.1666666666666 429.1666666666668z" />
    <glyph glyph-name="icon-content-whatsapp_hover"
      unicode="&#xE054;"
      horiz-adv-x="1000" d="M849.9999999999999 83.3333333333334H150C112.5 83.3333333333334 83.3333333333333 112.5 83.3333333333333 150.0000000000001V850C83.3333333333333 887.5 112.5 916.6666666666666 150 916.6666666666666H850C887.5 916.6666666666666 916.6666666666666 887.5 916.6666666666666 850V150C916.6666666666666 112.5 887.5 83.3333333333334 849.9999999999999 83.3333333333334zM737.4999999999999 716.6666666666667C679.1666666666666 775 599.9999999999999 812.5 508.3333333333333 812.5C333.3333333333333 812.5 187.5 670.8333333333333 187.5 491.6666666666667C187.5 437.5 204.1666666666666 383.3333333333334 233.3333333333333 333.3333333333334L187.5 166.6666666666668L358.3333333333333 212.5000000000001C404.1666666666667 187.5 458.3333333333333 170.8333333333335 512.5 170.8333333333335L512.5 170.8333333333335C687.5 170.8333333333335 833.3333333333333 312.5 833.3333333333333 491.6666666666667C829.1666666666665 579.1666666666667 795.8333333333334 658.3333333333334 737.4999999999999 716.6666666666667zM508.3333333333333 225L508.3333333333333 225C462.4999999999999 225 412.5 237.5 370.8333333333333 262.4999999999999L358.3333333333332 270.8333333333333L258.3333333333332 245.8333333333332L283.3333333333332 345.8333333333332L274.9999999999999 358.3333333333333C249.9999999999999 404.1666666666665 233.3333333333332 449.9999999999999 233.3333333333332 495.8333333333331C233.3333333333332 641.6666666666665 349.9999999999999 758.3333333333331 495.8333333333331 758.3333333333331C566.6666666666665 758.3333333333331 633.3333333333331 729.1666666666665 683.3333333333333 679.1666666666665C733.3333333333333 629.1666666666665 762.4999999999999 562.4999999999999 762.4999999999999 491.6666666666665C779.1666666666666 345.8333333333334 654.1666666666666 225 508.3333333333333 225zM654.1666666666666 429.1666666666668C645.8333333333333 433.3333333333334 608.3333333333333 450.0000000000001 599.9999999999999 454.1666666666667C591.6666666666666 458.3333333333334 591.6666666666666 458.3333333333334 583.3333333333333 450.0000000000001C579.1666666666666 441.6666666666668 562.5 425.0000000000001 558.3333333333334 416.6666666666668C554.1666666666666 412.5 545.8333333333333 408.3333333333334 541.6666666666666 412.5C533.3333333333334 416.6666666666668 508.3333333333333 425.0000000000001 479.1666666666666 454.1666666666667C458.3333333333333 475 437.5 500 433.3333333333333 508.3333333333334C429.1666666666667 516.6666666666667 433.3333333333333 520.8333333333335 437.5 525.0000000000001C441.6666666666667 529.1666666666667 445.8333333333333 537.5000000000001 450 541.6666666666667S454.1666666666666 550 458.3333333333333 558.3333333333335C462.4999999999999 562.5000000000001 458.3333333333333 570.8333333333335 458.3333333333333 575.0000000000001C454.1666666666666 579.1666666666667 441.6666666666667 620.8333333333335 433.3333333333333 633.3333333333335C425 641.6666666666667 416.6666666666667 641.6666666666667 412.5 641.6666666666667S400 641.6666666666667 395.8333333333333 641.6666666666667C391.6666666666667 641.6666666666667 383.3333333333333 637.5 375 629.1666666666667S345.8333333333334 604.1666666666667 345.8333333333334 562.5S375 483.3333333333334 379.1666666666667 483.3333333333334C383.3333333333334 479.1666666666667 433.3333333333334 400 516.6666666666667 362.5C533.3333333333334 354.1666666666668 550.0000000000001 345.8333333333334 562.5 345.8333333333334C579.1666666666667 337.5 600 341.6666666666667 612.5 341.6666666666667C629.1666666666667 345.8333333333334 658.3333333333334 358.3333333333334 666.6666666666666 379.1666666666668C674.9999999999999 395.8333333333334 674.9999999999999 412.5 670.8333333333334 416.6666666666668C670.8333333333334 420.8333333333334 662.5 425 654.1666666666666 429.1666666666668z" />
  </font>
</defs>
</svg>
