<?xml version="1.0" standalone="no"?>
<!DOCTYPE svg PUBLIC "-//W3C//DTD SVG 1.1//EN" "http://www.w3.org/Graphics/SVG/1.1/DTD/svg11.dtd" >
<svg xmlns="http://www.w3.org/2000/svg">
<metadata>Generated by IcoMoon</metadata>
<defs>
<font id="icomoon" horiz-adv-x="1024">
<font-face units-per-em="1024" ascent="960" descent="-64" />
<missing-glyph horiz-adv-x="1024" />
<glyph unicode="&#x20;" horiz-adv-x="512" d="" />
<glyph unicode="&#xe900;" glyph-name="icon-its-family" d="M711.936 397.867l-10.667 20.48v109.867c0 3.328 2.688 5.333 5.291 5.333 3.371 0 5.376-2.688 5.376-5.333v-130.389zM725.163 372.438c3.072-1.536 6.4-2.645 10.069-2.645 12.672 0 23.253 10.667 23.253 23.339v140.416c0 0.089 0.001 0.194 0.001 0.299 0 40.295-32.665 72.96-72.96 72.96-0.075 0-0.15 0-0.226 0h-95.135c-28.117 0-52.181-15.701-64.384-38.741 21.461-3.968 38.059-21.931 38.059-44.544 0-25.496-20.669-46.165-46.165-46.165s-46.165 20.669-46.165 46.165c0 25.496 20.669 46.165 46.165 46.165v0h0.171v0.213c0 44.032-35.328 79.36-79.36 79.36h-103.125c-43.947 0-79.36-35.285-79.36-79.36v-151.467c0.19-13.873 11.386-25.069 25.241-25.258h0.018c13.891 0.166 25.111 11.371 25.301 25.241v145.767c0 3.584 2.816 5.717 5.717 5.717 3.627 0 5.76-2.901 5.76-5.717v-434.261c0-17.323 13.696-31.061 31.019-31.061 0.064 0 0.139-0.001 0.214-0.001 17.013 0 30.805 13.792 30.805 30.805 0 0.090 0 0.18-0.001 0.271v-0.014 224.299c0 3.627 2.901 5.76 5.803 5.76s5.717-2.859 5.717-5.76l0.768-224.299c1.451-16.64 15.147-30.336 32.427-30.336 0.076-0.001 0.166-0.001 0.257-0.001 17.013 0 30.805 13.792 30.805 30.805 0 0.075 0 0.151-0.001 0.226v-0.012 274.944c-0.677 1.786-2.373 3.032-4.36 3.032-0.057 0-0.114-0.001-0.171-0.003h0.008c-2.603 0-5.163-1.707-5.163-4.48v-93.355c0-10.581-10.325-19.541-22.613-19.541-12.245 0-22.571 8.96-22.571 19.541v97.835c0 34.091 31.573 61.483 70.997 61.483h92.928c39.339 0 70.997-27.392 70.997-61.483v-98.347c0-10.667-10.325-19.627-22.613-19.627-12.245 0-22.571 8.96-22.571 19.627v93.312c0 2.219-1.92 4.48-5.163 4.48-2.56 0-5.163-1.707-5.163-4.48v-283.989c0-2.432-0.811-4.651-1.579-6.827 5.035-8.192 13.611-13.824 23.936-13.824 0.064-0.001 0.139-0.001 0.214-0.001 15.717 0 28.459 12.741 28.459 28.459 0 0.060 0 0.121-0.001 0.181v-0.009 129.28h10.88l0.427-129.28c1.28-15.36 13.952-27.947 29.909-27.947 0.076-0.001 0.167-0.001 0.257-0.001 15.694 0 28.416 12.722 28.416 28.416 0 0.075 0 0.151-0.001 0.226v-0.012 128.64h83.968l-60.117 115.584zM666.368 604.886c30.635 0 55.253 24.661 55.253 55.296 0 30.592-24.619 55.211-55.253 55.211-30.592 0-55.253-24.619-55.253-55.211 0-30.635 24.661-55.296 55.253-55.296zM415.573 648.235c0.025 0 0.055 0 0.086 0 32.99 0 59.733 26.744 59.733 59.733 0 0.060 0 0.12 0 0.18v-0.009c0 0.038 0 0.083 0 0.128 0 32.99-26.744 59.733-59.733 59.733-0.030 0-0.060 0-0.090 0h0.005c-0.038 0-0.083 0-0.128 0-32.99 0-59.733-26.744-59.733-59.733 0-0.045 0-0.090 0-0.135v0.007c0-0.051 0-0.111 0-0.171 0-32.99 26.744-59.733 59.733-59.733 0.045 0 0.090 0 0.135 0h-0.007z" />
<glyph unicode="&#xe901;" glyph-name="icon-its-sport" d="M634.88 270.080c-12.333-17.118-19.724-38.512-19.724-61.632s7.391-44.514 19.94-61.947l-0.216 0.315c20.042 13.448 33.056 36.020 33.056 61.632s-13.014 48.184-32.79 61.464l-0.266 0.168zM808.832 270.080c-19.985-13.498-32.958-36.058-32.981-61.65v-0.004c0-25.685 13.141-48.299 33.067-61.653 12.306 17.106 19.681 38.478 19.681 61.572 0 23.146-7.408 44.562-19.982 62.006l0.215-0.314zM753.28 208.427c0 32.384 16.085 60.8 40.533 78.464-18.831 17.476-44.122 28.221-71.923 28.288h-0.013c-27.819 0-52.907-10.88-71.936-28.288 24.448-17.664 40.533-46.080 40.533-78.507 0-32.341-16.085-60.885-40.619-78.421 18.851-17.509 44.169-28.282 72.003-28.373h0.018c27.819 0 52.992 10.965 71.936 28.373-24.604 17.699-40.457 46.222-40.533 78.452v0.012zM552.448 411.563c-21.163 0-50.773 4.352-71.509 25.088-22.699 22.613-30.421 62.123-21.163 108.331 4.107 19.984 10.057 37.635 17.857 54.246l-0.619-1.468c1.024 2.304 2.219 4.608 3.371 6.912 4.422 9.009 8.327 16.092 12.498 22.996l-0.765-1.364c4.437 7.381 9.387 14.421 14.507 21.291l3.115 3.925c5.49 7.004 10.978 13.236 16.795 19.143l-0.027-0.028c34.987 34.987 80.555 55.168 125.013 55.168 33.963 0 63.403-11.52 85.205-33.28 51.968-52.053 42.24-146.432-21.717-210.389-6.571-6.485-13.483-12.373-20.693-17.92-1.067-0.896-2.261-1.707-3.413-2.56-6.229-4.651-12.672-9.045-19.285-13.099l-4.267-2.56c-3.995-2.435-9.442-5.444-14.991-8.28l-1.649-0.765c-32-15.829-66.773-25.387-98.261-25.387zM401.152 356.779c10.496 26.155 18.475 55.040 26.283 84.608 5.973-12.971 13.739-24.747 23.637-34.603 10.027-10.069 22.229-17.621 35.541-23.68-29.867-7.765-59.051-15.787-85.461-26.325zM660.352 394.667c12.999 6.131 23.528 11.848 33.724 18.055l-1.596-0.903 1.237 0.725c9.488 5.837 17.477 11.379 25.156 17.304l-0.665-0.493 2.347 1.707c8.448 6.656 16.64 13.611 24.149 21.077l0.128 0.085c80.384 80.512 90.155 201.685 21.76 270.080-29.483 29.483-70.357 45.696-115.072 45.696-55.552 0-112-24.619-154.88-67.541-6.699-6.699-13.013-14.080-19.157-21.76-12.586-15.738-23.983-33.464-33.468-52.318l-0.793-1.74-3.2-6.571c-1.451-3.072-2.816-6.229-4.181-9.387-19.669-43.861-32.171-90.965-43.52-134.827-14.336-55.808-28.16-108.715-54.187-146.347-0.465 0.022-1.011 0.035-1.559 0.035-9.59 0-18.279-3.858-24.598-10.107l-130.984-130.984c-6.351-6.373-10.277-15.165-10.277-24.875 0-19.417 15.703-35.166 35.102-35.242h0.007c0.030 0 0.065 0 0.1 0 9.7 0 18.478 3.948 24.815 10.324l131.031 131.074c6.221 6.281 10.066 14.926 10.066 24.469 0 0.578-0.014 1.153-0.042 1.724l0.003-0.081c37.419 25.813 89.771 39.467 144.853 53.547 43.648 11.264 90.539 23.552 134.571 43.221 3.072 1.28 6.101 2.688 9.131 4.053z" />
<glyph unicode="&#xe902;" glyph-name="icon-its-beach" d="M579.797 417.664v0zM500.864 717.952h-0.043zM725.931 542.976h111.701c-48.043 101.888-179.2 175.019-333.483 175.019h-1.237c103.253-0.171 190.805-73.301 223.019-175.019zM279.125 542.976c31.488 99.115 115.584 170.965 215.467 174.635 1.408 0.043 2.816 0.299 4.224 0.341-151.893-1.707-280.576-74.24-328.149-174.976h108.459zM345.984 542.976h308.181c-22.187 101.376-82.176 174.251-153.131 174.933-2.133 0-4.267-0.256-6.4-0.299-68.949-3.669-126.933-75.52-148.651-174.635zM504.149 311.638c-0.064-0.001-0.14-0.001-0.216-0.001-13.925 0-25.235 11.192-25.427 25.071v303.677c0 13.824 11.52 25.131 25.643 25.131 14.165 0 25.685-11.307 25.685-25.131v-303.659c0-13.824-11.52-25.088-25.685-25.088zM689.323 237.995c-59.904-15.36-92.331-2.048-141.44 18.261-56.747 23.339-127.317 52.48-241.195 23.211-29.184-7.467-53.547-17.067-74.709-27.819v-51.456c24.954 14.218 53.827 25.987 84.283 33.811l2.458 0.536c113.835 29.227 176.299-6.912 233.003-30.293 49.067-20.224 89.771-26.581 149.632-11.179 27.819 7.125 48.213 17.28 65.536 30.080v56.576c-19.115-18.56-41.301-32.427-77.568-41.728zM689.323 153.643c-59.904-15.36-92.331-2.005-141.44 18.261-56.747 23.424-127.317 52.48-241.195 23.253-28.503-7.267-53.362-16.802-76.743-28.81l2.033 0.949v-51.456c24.953 14.232 53.826 26.015 84.282 33.852l2.459 0.537c113.835 29.184 176.299-6.955 233.003-30.336 49.067-20.224 89.771-26.539 149.632-11.136 27.819 7.125 48.213 17.237 65.536 30.037v56.576c-19.115-18.56-41.301-32.427-77.568-41.728z" />
<glyph unicode="&#xe903;" glyph-name="icon-its-hotel" d="M429.184 85.334v225.877h150.613v-225.877h188.203v301.184h112.939l-376.448 338.816-376.491-338.816h112.939v-301.184z" />
<glyph unicode="&#xe904;" glyph-name="icon-its-wellness" d="M485.76 388.182c14.507 45.397 37.12 93.909 75.349 132.139 16.512 16.512 35.115 29.867 53.632 42.283-27.776 109.44-111.445 188.885-115.541 192.981l-13.44 12.416-14.464-13.397c-4.139-4.139-88.747-83.627-115.584-193.024 19.627-11.349 37.163-24.747 53.675-42.325 39.253-38.187 61.909-86.699 76.373-131.072zM201.984 336.598c-57.856-23.765-98.048-59.861-100.139-61.909l-16.512-15.488 16.512-15.488c4.096-3.072 89.813-82.56 199.211-82.56 26.795 0 52.651 5.12 76.373 12.373 2.048 12.373 10.325 35.115 39.211 57.813-58.88 8.235-142.421 30.933-202.283 91.861-5.205 5.163-9.344 9.259-12.373 13.397zM869.717 274.688c-2.091 2.048-41.301 38.144-100.139 61.909-4.139-4.139-8.277-8.235-12.373-13.397-60.843-60.928-144.512-83.627-202.283-91.861 28.885-23.765 37.163-46.507 39.211-57.813 23.723-7.253 49.579-12.373 76.373-12.373 109.397 0 195.072 79.488 199.211 82.56l16.512 15.488-16.512 15.488zM506.453 269.483c44.373 2.091 152.704 14.464 221.867 83.627 69.12 69.12 81.493 176.469 83.584 221.867-44.373-2.005-152.747-15.445-221.909-83.627-68.139-70.101-81.493-177.493-83.584-221.867zM465.109 269.483c-2.048 44.373-14.421 152.747-83.541 221.867-69.163 69.291-177.536 81.664-221.909 83.669 2.048-44.373 14.421-152.747 83.627-221.867 69.12-69.163 176.427-81.536 221.867-83.627zM485.76 225.11c-29.867-13.397-68.096-39.168-68.096-58.795 0-18.603 37.12-44.373 68.096-58.88 29.909 13.483 68.096 39.253 68.096 58.88 0 18.603-37.12 44.373-68.096 58.795z" />
<glyph unicode="&#xe905;" glyph-name="icon-its-call" d="M170.667 426.667c0-188.203 153.088-341.291 341.291-341.291 75.861 0 147.712 24.363 208.469 71.083 24.149 21.205 23.723 51.413 12.544 71.936-6.511 12.186-17.101 21.476-29.909 26.16l-0.384 0.123 5.717 6.4c6.688 7.47 10.776 17.389 10.776 28.263 0 2.374-0.195 4.702-0.569 6.97l0.034-0.247c-2.051 12.933-9.694 23.75-20.326 30.058l-0.196 0.108-75.093 43.989c-6.152 3.508-13.519 5.576-21.368 5.576-12.669 0-24.080-5.387-32.067-13.996l-0.026-0.028-16.64-18.773c-2.577-2.911-6.323-4.737-10.495-4.737-0.045 0-0.091 0-0.136 0.001h0.007c-0.025 0-0.054 0-0.083 0-4.913 0-9.237 2.524-11.745 6.347l-0.033 0.053-91.563 138.112c-1.474 2.182-2.353 4.872-2.353 7.767 0 1.398 0.205 2.749 0.587 4.023l-0.025-0.099c1.108 4.053 3.918 7.297 7.594 8.968l0.086 0.035 26.24 12.245c14.698 6.949 24.685 21.654 24.685 38.692 0 3.53-0.429 6.96-1.237 10.24l0.061-0.293-20.352 84.608c-6.101 25.259-35.627 39.765-59.435 28.715l-23.381-10.88c-34.24-16.086-59.756-45.932-69.679-82.218l-0.209-0.896-4.267-16.043c-7.68-28.885-5.035-59.733 7.595-86.784l20.949-45.355c32.355-68.927 74.35-127.802 125.075-177.854l17.389-17.132c24.759-24.584 58.492-40.159 95.855-41.381l0.23-0.006h4.693c32.541 0.030 62.537 10.897 86.582 29.185l-0.353-0.257c2.569 0.883 5.529 1.392 8.608 1.392 10.459 0 19.544-5.88 24.131-14.514l0.072-0.148c5.76-10.624 5.973-26.155-5.547-36.395-51.79-40.319-117.764-64.642-189.418-64.642-0.368 0-0.735 0.001-1.102 0.002h0.057c-172.459 0-312.875 140.373-312.875 312.875s140.373 312.832 312.875 312.832 312.875-140.373 312.875-312.832c0-7.847 6.361-14.208 14.208-14.208s14.208 6.361 14.208 14.208v0c0 188.245-153.173 341.333-341.333 341.333-188.203 0.043-341.291-153.045-341.291-341.291z" />
<glyph unicode="&#xe906;" glyph-name="icon-its-facebook" d="M891.52 853.334h-759.083c-26.027 0-47.104-21.077-47.104-47.104v-759.125c0-25.984 21.12-47.104 47.104-47.104h408.661v320.299h-111.147v128.768h111.147v95.019c0 110.165 67.328 170.24 165.675 170.24 47.061 0 87.552-3.541 99.371-5.12v-115.157l-68.267-0.043c-53.419 0-63.829-25.387-63.829-62.72v-82.219h127.573l-16.64-128.768h-110.933v-320.299h217.472c26.027 0 47.147 21.077 47.147 47.104v759.125c0 26.027-21.12 47.104-47.147 47.104z" />
<glyph unicode="&#xe907;" glyph-name="icon-its-instagram" d="M513.621 560.043c-74.486-0.097-134.839-60.466-134.912-134.948v-0.007c0.097-74.471 60.441-134.815 134.903-134.912h0.009c74.471 0.097 134.815 60.441 134.912 134.903v0.009c-0.073 74.489-60.426 134.858-134.903 134.955h-0.009zM513.621 211.755c-117.632 0-213.333 95.659-213.333 213.333 0 117.632 95.701 213.333 213.333 213.333s213.333-95.701 213.333-213.333c0-117.675-95.701-213.333-213.333-213.333zM725.333 640.64c-0.013 0.001-0.029 0.002-0.044 0.002-0.33 0-0.597-0.267-0.597-0.597 0-0.016 0.001-0.031 0.002-0.046v0.002l0.64 0.64zM725.333 586.71c-29.44 0-53.333 23.936-53.333 53.291 0 29.44 23.893 53.333 53.333 53.333s53.333-23.893 53.333-53.333c0-29.355-23.893-53.291-53.333-53.291zM302.72 768c-72.897-0.049-131.98-59.118-132.053-132.004v-418.61c0.049-72.92 59.137-132.023 132.047-132.096h418.567c72.897 0.121 131.956 59.196 132.053 132.087v418.569c-0.073 72.917-59.176 132.005-132.091 132.053h-418.565zM715.52 0.043h-407.040c-123.192 0.121-223.025 99.955-223.147 223.135v407.009c0.146 123.182 99.965 223.001 223.133 223.147h407.054c123.182-0.146 223.001-99.965 223.147-223.133v-407.054c-0.121-123.192-99.955-223.025-223.135-223.147h-0.012z" />
<glyph unicode="&#xe908;" glyph-name="icon-its-youtube" d="M868.364 853.334c38.664 0 70.302-31.654 70.302-70.266v-712.802c0-38.665-31.639-70.266-70.302-70.266h-712.782c-38.61 0-70.249 31.601-70.249 70.266v712.802c0 38.612 31.639 70.266 70.249 70.266h712.782zM799.798 182.811c7.228 24.938 10.816 63.556 10.868 115.856 0 52.603-3.429 91.178-10.341 115.856-3.64 13.032-11.396 23.985-23.372 32.731-11.923 8.789-25.693 13.898-41.257 15.413-49.171 4.459-123.825 6.667-223.697 6.667-99.556 0-173.945-2.251-223.222-6.667-15.88-1.515-29.756-6.624-41.521-15.413-11.712-8.745-19.468-19.699-23.056-32.731-7.281-25.847-10.868-64.465-10.868-115.856 0-52.3 3.588-90.918 10.868-115.856 3.588-12.815 11.343-23.639 23.056-32.514 11.765-8.962 25.43-14.157 41.046-15.629 49.54-4.459 124.088-6.667 223.697-6.667 99.556 0 174.104 2.208 223.697 6.667 15.564 1.472 29.228 6.667 41.046 15.629 11.712 8.875 19.415 19.742 23.056 32.514zM360.059 751.493h-38.068c2.607-7.49 6.495-18.726 11.71-33.659 5.167-14.981 8.913-26.216 11.188-33.707 11.378-33.517 18.916-59.212 22.471-77.084v-98.039h36.124v98.039l43.899 144.45h-36.599l-24.889-95.147-25.837 95.147zM447.858 630.983v-63.479c0-18.821 3.413-32.996 10.24-42.43 8.77-12.326 21.476-18.536 38.068-18.536 15.976 0 28.634 6.163 38.021 18.536 6.874 8.77 10.287 22.945 10.287 42.43v63.479c0 18.821-3.413 32.996-10.287 42.43-9.387 12.373-22.044 18.536-38.021 18.536-16.593 0-29.298-6.163-38.068-18.536-6.827-9.434-10.24-23.609-10.24-42.43zM571.354 689.532v-142.981c0-12.041 0.948-21.001 2.892-26.833 3.556-8.77 10.572-13.179 20.954-13.179 11.757 0 24.225 7.348 37.594 21.95v-19.484h32.711v180.527h-32.711v-138.098c-7.159-10.098-13.985-15.123-20.48-15.123-4.883 0-7.49 2.56-7.822 7.775-0.332 0.664-0.474 4.883-0.474 12.705v132.741h-32.664zM496.194 536.301c10.382 0 15.597 8.296 15.597 24.889v76.136c0 16.924-5.215 25.363-15.597 25.363-10.43 0-15.644-8.439-15.644-25.363v-76.136c0-16.593 5.215-24.889 15.644-24.889zM699.16 284.032h-32.237v16.593c0 16.593 5.404 24.889 16.119 24.889 10.761 0 16.119-8.296 16.119-24.889v-16.593zM683.563 354.764c-16.64 0-29.63-6.163-39.016-18.536-6.542-8.723-9.766-22.756-9.766-41.956v-62.957c0-19.2 3.366-33.185 10.193-41.956 9.481-12.373 22.613-18.536 39.538-18.536 17.256 0 30.246 6.495 39.064 19.532 3.887 5.831 6.305 12.326 7.301 19.532 0.664 4.504 0.948 11.52 0.948 20.954v4.409h-33.185v-10.477c0-3.413-0.047-6.116-0.237-8.059-0.142-1.944-0.237-3.081-0.237-3.413-1.944-8.486-6.827-12.658-14.601-12.658-11.046 0-16.593 8.296-16.593 24.841v31.716h64.853v37.073c0 18.868-3.413 32.853-10.193 42.003-8.818 12.326-21.476 18.489-38.068 18.489v0zM453.741 215.723c-7.159-10.050-14.033-15.123-20.527-15.123-4.551 0-6.969 2.418-7.301 7.301-0.332 0.664-0.521 4.883-0.521 12.705v131.745h-32.142v-141.511c0-12.373 0.948-21.144 2.892-26.359 2.939-9.102 9.766-13.653 20.527-13.653 12.041 0 24.367 7.348 37.073 21.997v-19.579h32.664v179.105h-32.664v-136.628zM275.129 379.682h38.068v-206.412h36.077v206.412h39.064v34.133h-113.209zM577.166 224.517c0-15.976-4.741-23.893-14.175-23.893-5.499 0-10.856 2.56-16.071 7.775v109.321c5.215 5.167 10.572 7.775 16.071 7.775 9.434 0 14.175-8.154 14.175-24.367v-76.61zM580.105 354.793c-11.757 0-22.756-6.542-33.185-19.532v78.554h-32.664v-240.545h32.664v17.588c10.761-13.369 21.76-20.006 33.185-20.006 13.321 0 21.95 6.827 25.837 20.48 2.276 6.827 3.461 18.679 3.461 35.603v71.253c0 17.209-1.185 29.298-3.461 36.077-3.887 13.701-12.516 20.527-25.837 20.527v0z" />
<glyph unicode="&#xe909;" glyph-name="icon-its-halfchecked" d="M910.222 938.667h-796.444c-62.578 0-113.778-51.2-113.778-113.778v-796.444c0-62.578 51.2-113.778 113.778-113.778h796.444c62.578 0 113.778 51.2 113.778 113.778v796.444c0 62.578-51.2 113.778-113.778 113.778zM796.444 369.778h-568.889v113.778h568.889v-113.778z" />
<glyph unicode="&#xe90a;" glyph-name="icon-its-rss" d="M279.938 55.625c0-76.758-62.223-138.981-138.981-138.981s-138.981 62.223-138.981 138.981c0 76.758 62.223 138.981 138.981 138.981s138.981-62.223 138.981-138.981zM1.975 908.64v-180.422c448.185 0 811.578-363.393 811.578-811.578h180.422c0 547.64-444.36 991.998-991.998 991.998zM1.975 547.798v-180.422c248.638 0 450.734-202.096 450.734-450.734h180.422c0 348.73-282.426 631.156-631.156 631.156z" />
<glyph unicode="&#xe90b;" glyph-name="icon-its-blog" d="M509.184 94.123c-0.088 0-0.192 0-0.296 0-120.648 0-218.453 97.805-218.453 218.453 0 7.272 0.355 14.46 1.049 21.549l-0.071-0.899 1.707 343.979c0 31.957 26.027 57.856 58.283 57.856 36.437 0 70.485-23.467 70.485-55.467l-1.707-171.093c30.293 15.701 52.48 22.187 89.003 22.187 0.076 0 0.166 0 0.256 0 120.606 0 218.393-97.697 218.539-218.269v-0.014c-0.146-120.586-97.933-218.283-218.539-218.283-0.090 0-0.18 0-0.27 0h0.014zM868.352 853.334h-712.789c-38.748-0.097-70.132-31.482-70.229-70.22v-712.884c0-38.656 31.573-70.229 70.229-70.229h712.789c38.784 0.048 70.218 31.452 70.315 70.22v712.841c-0.073 38.796-31.515 70.223-70.31 70.272h-0.005zM417.195 314.326c0-54.209 43.945-98.155 98.155-98.155s98.155 43.945 98.155 98.155v0c0 54.209-43.945 98.155-98.155 98.155s-98.155-43.945-98.155-98.155v0z" />
<glyph unicode="&#xe90c;" glyph-name="icon-its-gplus" d="M896 853.335h-767.999c-21.332 0-42.668-21.332-42.668-42.668v-767.999c0-21.332 21.332-42.668 42.668-42.668h767.999c21.332 0 42.668 21.332 42.668 42.668v767.999c0 21.332-21.332 42.668-42.668 42.668zM388.269 209.067c-119.468 0-217.6 98.132-217.6 217.6s98.132 217.6 217.6 217.6c59.732 0 110.932-21.332 145.068-59.732l-64-64c-21.332 21.332-46.932 34.132-81.068 34.132-72.532 0-128-59.732-128-132.268s59.732-132.268 128-132.268c59.732 0 98.132 34.132 115.2 89.6h-115.2v85.332h204.8c4.268-17.068 4.268-34.132 4.268-46.932 0-132.268-93.868-209.068-209.068-209.068zM853.331 409.599h-76.8v-76.8h-55.468v76.8h-76.8v55.468h76.8v76.8h55.468v-76.8h76.8v-55.468z" />
<glyph unicode="&#xe90d;" glyph-name="icon-its-linkedin" d="M725.333 640.633c-0.369 0-0.632-0.264-0.632-0.632l0.632 0.632zM725.333 586.72c-29.407 0-53.333 23.926-53.333 53.281 0 29.407 23.926 53.333 53.333 53.333s53.333-23.926 53.333-53.333c0-29.354-23.926-53.281-53.333-53.281v0zM868.364 853.334c38.664 0 70.302-31.654 70.302-70.266v-712.802c0-38.665-31.639-70.266-70.302-70.266h-712.782c-38.61 0-70.249 31.601-70.249 70.266v712.802c0 38.612 31.639 70.266 70.249 70.266h712.782zM371.807 170.667v341.334h-105.653v-341.334h105.653zM318.477 556.701v0c34.503 0 62.476 28.199 62.474 62.982 0 34.785-27.972 62.984-62.474 62.984s-62.477-28.199-62.477-62.984c0-34.781 27.972-62.982 62.477-62.982zM767.741 170.667v0l0.002 216.128c0 91.424-51.813 135.618-124.192 135.618-72.377 0-102.858-56.384-102.858-56.384v45.972h-101.333v-341.334h101.333v179.172c0 48.003 22.093 76.573 64.383 76.573 38.858 0 57.524-27.431 57.524-76.573v-179.172h105.141z" />
<glyph unicode="&#xe90e;" glyph-name="icon-its-twitter" d="M896 853.335h-767.999c-21.332 0-42.668-21.332-42.668-42.668v-767.999c0-21.332 21.332-42.668 42.668-42.668h767.999c21.332 0 42.668 21.332 42.668 42.668v767.999c0 21.332-21.332 42.668-42.668 42.668zM849.068 631.467c-4.268-4.268-17.068-21.332-34.132-38.4-25.6-25.6-29.868-29.868-29.868-51.2 0-34.132-17.068-106.668-34.132-149.331-29.868-76.8-98.132-153.6-166.4-192-93.868-55.468-217.6-68.268-324.268-38.4-34.132 12.8-93.868 38.4-93.868 42.668 0 0 17.068 4.268 38.4 4.268 46.932 0 93.868 12.8 132.268 38.4l25.6 17.068-29.868 8.532c-42.668 12.8-81.068 46.932-93.868 81.068-4.268 8.532 0 12.8 25.6 12.8h29.868l-25.6 12.8c-29.868 12.8-55.468 38.4-68.268 64-8.532 17.068-21.332 64-17.068 64 0 0 12.8 0 21.332-4.268 34.132-12.8 38.4-8.532 17.068 12.8-38.4 38.4-46.932 93.868-29.868 145.068l8.532 25.6 34.132-34.132c68.268-64 145.068-102.4 234.668-115.2l25.6-4.268v25.6c-4.268 64 34.132 119.468 98.132 140.8 21.332 8.532 59.732 8.532 85.332 0 8.532-4.268 29.868-12.8 42.668-21.332l25.6-17.068 25.6 8.532c12.8 4.268 34.132 12.8 42.668 17.068s17.068 8.532 17.068 4.268c0-8.532-17.068-38.4-34.132-51.2-21.332-21.332-12.8-25.6 25.6-8.532 29.868 8.532 34.132 8.532 25.6 0z" />
<glyph unicode="&#xe90f;" glyph-name="icon-its-whatsapp" d="M512 725.335c-102.4 0-192-51.2-243.2-128-34.132-46.932-55.468-106.668-55.468-170.668 0-46.932 8.532-89.6 29.868-128l-29.868-170.668 170.668 29.868c38.4-17.068 81.068-29.868 128-29.868 64 0 123.731 21.332 170.668 55.468 76.8 55.468 128 145.068 128 243.2 0 166.4-132.268 298.668-298.668 298.668zM678.4 319.999c-8.532-21.332-42.668-38.4-55.468-38.4-17.068 0-29.868-8.532-102.4 21.332-85.332 34.132-140.8 119.468-145.068 128-4.268 4.268-34.132 46.932-34.132 85.332 0 42.668 21.332 59.732 29.868 68.268s17.068 8.532 21.332 8.532c4.268 0 12.8 0 17.068 0s12.8 0 17.068-12.8c8.532-17.068 25.6-59.732 25.6-64s4.268-8.532 0-12.8c-4.268-4.268-4.268-8.532-8.532-12.8s-8.532-12.8-12.8-12.8c-4.268-4.268-8.532-8.532-4.268-17.068s21.332-34.132 46.932-59.732c34.132-29.868 59.732-38.4 68.268-42.668s12.8-4.268 17.068 0c4.268 4.268 21.332 25.6 25.6 34.132s12.8 8.532 17.068 4.268c8.532-4.268 46.932-21.332 55.468-25.6s12.8-4.268 17.068-8.532 8.532-21.332 4.268-42.668zM896 853.335h-767.999c-21.332 0-42.668-21.332-42.668-42.668v-767.999c0-21.332 21.332-42.668 42.668-42.668h767.999c21.332 0 42.668 21.332 42.668 42.668v767.999c0 21.332-21.332 42.668-42.668 42.668zM682.668 132.267c-51.2-29.868-106.668-46.932-170.668-46.932-51.2 0-102.4 12.8-145.068 34.132l-196.268-34.132 34.132 196.268c-21.332 42.668-34.132 93.868-34.132 145.068 0 64 17.068 119.468 46.932 170.668 59.732 102.4 170.668 170.668 294.4 170.668 187.731 0 341.331-153.6 341.331-341.331 0-128-68.268-234.668-170.668-294.4z" />
<glyph unicode="&#xe910;" glyph-name="icon-its-xing" d="M868.364 853.334c38.664 0 70.302-31.654 70.302-70.266v-712.802c0-38.665-31.639-70.266-70.302-70.266h-712.782c-38.61 0-70.249 31.601-70.249 70.266v712.802c0 38.612 31.639 70.266 70.249 70.266h712.782zM304.72 606.461c-5.159 0-9.501-1.813-11.691-5.358-2.259-3.658-1.917-8.375 0.493-13.147l57.959-100.331c0.098-0.19 0.098-0.312 0-0.487l-91.080-160.727c-2.374-4.731-2.259-9.483 0-13.15 2.187-3.528 6.042-5.843 11.207-5.843h85.719c12.814 0 18.999 8.648 23.379 16.553 0 0 89.074 157.536 92.542 163.652-0.351 0.565-58.931 102.765-58.931 102.765-4.276 7.599-10.716 16.077-23.864 16.077l-85.734-0.003zM664.843 723.845c-12.806 0-18.354-8.065-22.951-16.327 0 0-184.668-327.493-190.754-338.245 0.312-0.582 121.797-223.453 121.797-223.453 4.256-7.602 10.82-16.327 23.953-16.327h85.618c5.165 0 9.201 1.944 11.376 5.477 2.288 3.655 2.223 8.49-0.175 13.248l-120.846 220.79c-0.116 0.169-0.116 0.392 0 0.562l189.789 335.577c2.386 4.737 2.437 9.569 0.181 13.23-2.187 3.531-6.235 5.477-11.4 5.477l-86.587-0.009z" />
<glyph unicode="&#xe911;" glyph-name="zoom-in" d="M729.072 293.623h-44.347l-16.339 16.339c56.018 65.355 88.697 149.383 88.697 240.413 2.333 200.735-163.387 366.457-366.457 366.457s-368.791-165.723-368.791-368.791 165.723-368.791 368.791-368.791c91.030 0 175.058 32.679 240.413 88.697l16.339-16.339v-44.347l282.427-282.427 84.028 84.028-284.763 284.763zM390.627 293.623c-140.048 0-254.419 114.371-254.419 254.419s114.371 254.419 254.419 254.419 254.419-114.371 254.419-254.419-114.371-254.419-254.419-254.419zM533.008 520.032h-114.371v-112.038h-56.018v112.038h-112.038v56.018h112.038v112.038h56.018v-112.038h112.038v-56.018z" />
<glyph unicode="&#xe912;" glyph-name="icon-its-pinterest" d="M874.441 852.955h-728.637c-33.803 0-60.092-26.29-60.092-60.092v-728.637c0-33.803 26.29-60.092 60.092-60.092h195.305c-7.51 135.212 37.558 244.132 60.092 356.806-41.313 71.361 7.51 217.839 97.651 180.281 112.674-45.071-97.651-270.421 41.313-296.714 146.478-30.048 206.573 251.642 116.431 345.537-131.453 131.453-379.34 3.755-349.294-187.792 7.51-45.071 56.337-60.092 18.779-123.943-82.63 18.779-108.919 86.385-105.164 172.771 3.755 142.723 127.698 244.132 251.642 259.153 157.747 18.779 304.224-56.337 326.758-206.573 22.534-169.012-71.361-349.294-240.373-334.272-45.071 3.755-63.851 26.29-101.409 48.827-15.024-82.63-33.803-157.747-75.116-214.084h492.016c33.803 0 60.092 26.29 60.092 60.092v728.637c3.755 33.803-26.29 60.092-60.092 60.092z" />
</font>
</defs>
</svg>
